MEGA SALE -50% FORZA HORIZON 4 ULTIMATE+ВСЕ DLC+ОНЛАЙН всего за 599р. 299 руб. (супер цена). Внимание количество ограничено!!!

iTunes

1+1

iTunes

мы

iTunes

1

iTunes

Чернобыль

iTunes

Ральф против интернета

Лицензия

ПШазам

Лицензия

Игра престолов

Лицензия

30
pack

ВАЖНО

!!Акция!!

Alien_RageХит недели

RePack

Resident Evil 21

ИГРА 18+

pack

RePack

Metro:Exodus

!!Акция!!

Alien_Rage

RePack

fifa19

RePack

Assassins Creed: Odyssey

RePack

NEED FOR SPEED™ PAYBACK

3 сезон

9 сезон

Бесстыжие 9 сезон

Все сериалы

все сериалы на PB.wtf

RePack

FAR CRY 5
Ребята, катастрофически не хватает 7730р. для оплаты серверов за АВГУСТ (всвязи с блокировками трафик упал в 3 раза), 1-2р., выручайте.
  

Ой, мороз, мороз! (Николай Щербаков) [2005 г., Комедия, DVDRip-AVC, Оригинальный] от ExKinoRay freegat.top

Ой, мороз, мороз! через торрент freegat.top

Размер: 2.01 GB | Добавлен: 1 год 10 мес. назад | Торрент скачан:32 раза
Скачать  

04-11-2017 14:54 Ой, мороз, мороз! Скачать торрент  

Ой мороз мороз!
Год выпуска: 2005
Страна: Россия
Жанр: Комедия
Продолжительность: 01:35:06
Перевод: Оригинальный

Режиссер: Николай Щербаков



В ролях: Владимир Епифанцев, Анастасия Задорожная, Роман Мадянов, Виктор Проскурин, Валерий Гаркалин, Борис Клюев, Раиса Рязанова, Ирина Шипова, Галина Данилова, Алексей Зуев

Описание: Иногда, чтобы исправить свою судьбу, полезно сыграть роль другого человека. Жизнь героя этой взрослой сказки действительно зашла в
тупик. Он бывший офицер спецназа, отбывающий срок по ложному обвинению. Уже несколько лет подряд в канун Нового года он бежит из колонии, чтобы отомстить. Однако у судьбы свои планы и в этот раз все будет совсем иначе. Роль Деда Мороза, которую по воле случая придется сыграть герою, позволит ему посмотреть на себя со стороны, научит дарить радость другим, и вернет удачу и счастье в его собственную жизнь.

Доп. информация: Аудио: AC3, 5 ch, 224 Кбит/с (Front: L C R, Side: L R)

Качество: DVDRip-AVC
Формат: MKV
Видео кодек: MPEG4
Аудио кодек: AC3
Видео: MPEG-4 AVC, 2800 Кбит/с, 700x450@746x450, 25 кадров/сек
Аудио#1: AC3, 5 ch, 224 Кбит/с, 48,0 КГц
Релиз от:




raw [info]: 700x450p 16:15 @ 25/1 fps (cfr)
x264 [info]: using SAR=16/15
x264 [info]: using cpu capabilities: MMX2 SSE2Fast LZCNT
x264 [info]: profile High, level 4.1
x264 [info]: frame I:901 Avg QP:15.97 size: 61765
x264 [info]: frame P:29630 Avg QP:18.23 size: 29637
x264 [info]: frame B:112134 Avg QP:20.70 size: 9485
x264 [info]: consecutive B-frames: 1.5% 2.6% 6.0% 15.4% 14.7% 54.5% 3.9% 0.9% 0.3% 0.1% 0.0% 0.1% 0.0% 0.0% 0.0% 0.0% 0.0%
-----
Общее
Уникальный идентификатор : 176409787495458722509732413639706584149 (0x84B74A0A74CAFCE7A34335983A70A455)
Полное имя : D:\ExKinoRay\Oj.Mopoz.Mopoz.2005.DVDRip-AVC.ExKinoRay.mkv
Формат : Matroska
Версия формата : Version 2
Размер файла : 2,01 Гбайт
Продолжительность : 1 ч. 35 м.
Общий поток : 3026 Кбит/сек
Дата кодирования : UTC 2017-11-04 12:04:50
Программа кодирования : mkvmerge v7.8.0 ('River Man') 32bit built on Apr 3 2015 12:11:22
Библиотека кодирования : libebml v1.3.1 + libmatroska v1.4.2

Видео
Идентификатор : 1
Формат : AVC
Формат/Информация : Advanced Video Codec
Профиль формата : High@L4.1
Параметр CABAC формата : Да
Параметр ReFrames формата : 14 кадров
Идентификатор кодека : V_MPEG4/ISO/AVC
Продолжительность : 1 ч. 35 м.
Битрейт : 2800 Кбит/сек
Ширина : 700 пикселей
Высота : 450 пикселей
Соотношение сторон : 5:3
Соотношение сторон в оригинале : 5:3
Режим частоты кадров : Постоянный
Частота кадров : 25,000 кадров/сек
Цветовое пространство : YUV
Субдискретизация насыщенности : 4:2:0
Битовая глубина : 8 бит
Тип развёртки : Прогрессивная
Бит/(Пиксели*Кадры) : 0.356
Размер потока : 1,82 Гбайт (91%)
Библиотека кодирования : x264 core 148 r2638 7599210
Настройки программы : cabac=1 / ref=14 / deblock=1:-2:-2 / analyse=0x3:0x133 / me=umh / subme=10 / psy=1 / psy_rd=1.05:0.15 / mixed_ref=1 / me_range=32 / chroma_me=1 / trellis=2 / 8x8dct=1 / cqm=0 / deadzone=21,11 / fast_pskip=0 / chroma_qp_offset=-3 / threads=4 / lookahead_threads=1 / sliced_threads=0 / nr=0 / decimate=0 / interlaced=0 / bluray_compat=0 / constrained_intra=0 / bframes=16 / b_pyramid=2 / b_adapt=2 / b_bias=0 / direct=3 / weightb=1 / open_gop=0 / weightp=2 / keyint=250 / keyint_min=25 / scenecut=40 / intra_refresh=0 / rc=2pass / mbtree=0 / bitrate=2800 / ratetol=1.0 / qcomp=0.60 / qpmin=0 / qpmax=69 / qpstep=4 / cplxblur=20.0 / qblur=0.5 / ip_ratio=1.40 / pb_ratio=1.30 / aq=1:1.00
Язык : Russian
Default : Да
Forced : Нет
Цветовой диапазон : Limited
Основные цвета : BT.601 NTSC
Характеристики трансфера : BT.601
Коэффициенты матрицы : BT.601

Аудио
Идентификатор : 2
Формат : AC-3
Формат/Информация : Audio Coding 3
Расширение режима : CM (complete main)
Параметр Endianness формата : Big
Идентификатор кодека : A_AC3
Продолжительность : 1 ч. 35 м.
Вид битрейта : Постоянный
Битрейт : 224 Кбит/сек
Каналы : 5 каналов
Расположение каналов : Front: L C R, Side: L R
Частота : 48,0 КГц
Частота кадров : 31,250 кадров/сек (1536 spf)
Метод сжатия : С потерями
Размер потока : 152 Мбайт (7%)
Язык : Russian
Default : Да
Forced : Нет

freegat.top



Скачать Ой, мороз, мороз! через торрент http://s009.radikal.ru/i310/1711/02/26fc0c4fae12.jpg Скачать фильм Ой, мороз, мороз! через торрент бесплантно в хорошем качестве Описание: Иногда, чтобы исправить свою судьбу, полезно сыграть роль другого человека. Жизнь героя этой взрослой сказки действительно зашла ... 10 10 2
Info! Золотая раздача, скачанное не засчитывается.
Торрент: Зарегистрирован [2017-11-04 14:54] · скачан: 32 раз
Статус: √ проверено
Размер: 2.01 GB
Как cкачать? Как скачать Ой, мороз, мороз! через торрент | qTorrent


>> Регистрируемся здесь <<






Отзывы и комментарии о схеме читаем и пишем здесь: ---> Отзывы и комментарии о схеме

Новые благодарочки в телеграм довольных пользователей:
скриншот   скриншот   скриншот   скриншот   скриншот

04-11-2017 14:59 Ой, мороз, мороз! Скачать торрент  

Топик был перенесен из форума Оформление раздач (Кино, Видео и ТВ) в форум Наши фильмы, до 2010


-Lexx-freegat.top



    Дорогой пользователь! Огромная просьба, поблагодарите релизера, оцените раздачу и оставьте свои комментарий, если Вы скачали Ой, мороз, мороз! через торрент бесплатно! Внесите свою лепту в развитие PiratBit!
    Комментировать посты могут только пользователи прошедшие не сложную регистрацию
    Показать сообщения:    

    Ой, мороз, мороз! через торрент
    Скачать бесплатно Ой, мороз, мороз!
    Ой, мороз, мороз! скачать торрент
    Ой, мороз, мороз! смотреть онлайн
    Cкачать фильм Ой, мороз, мороз! бесплатно
    Ой, мороз, мороз! скачать торрент в хорошем качестве
    Ой, мороз, мороз! смотреть онлайн бесплатно в хорошем качестве


    Вы не можете начинать темы
    Вы не можете отвечать на сообщения
    Вы не можете редактировать свои сообщения
    Вы не можете удалять свои сообщения
    Вы не можете голосовать в опросах
    Вы не можете прикреплять файлы к сообщениям
    Вы можете скачивать файлы