новый адрес пиратбит piratbit
Мега распродажа FORZA HORIZON 4 ULTIMATE+ВСЕ DLC+ОНЛАЙН всего за 499р. 349 руб. (супер цена). Внимание количество ограничено!!!

iTunes

1+1

iTunes

мы

iTunes

1

iTunes

Чернобыль

iTunes

Ральф против интернета

Лицензия

ПШазам

Лицензия

Игра престолов

Лицензия

30
pack

ВАЖНО

!!Акция!!

Alien_RageХит недели

RePack

Resident Evil 21

ИГРА 18+

pack

RePack

Metro:Exodus

!!Акция!!

Alien_Rage

RePack

fifa19

RePack

Assassins Creed: Odyssey

RePack

NEED FOR SPEED™ PAYBACK

3 сезон

9 сезон

Бесстыжие 9 сезон

Все сериалы

все сериалы на PB.wtf

RePack

FAR CRY 5
Ребята, катастрофически не хватает 1900р. для оплаты серверов за Октябрь (всвязи с блокировками трафик упал в 3 раза), 1-2р., выручайте.
  

Позвоните Мышкину (Илья Казанков) [2018, комедия, WEB-DL 720p] [Line] freegat.top

Позвоните Мышкину через торрент freegat.top

Размер: 3.03 GB | Добавлен: 11 мес. назад | Торрент скачан:37 раз
Скачать  

06-12-2018 17:36 Позвоните Мышкину Скачать торрент  

Позвоните МышкинуГод выпуска: 2018
Страна: Россия
Жанр: комедия
Продолжительность: 01:22:05
Перевод: Не требуется | Line
Субтитры: отсутствуют

Режиссер: Илья Казанков



В ролях:

Михаил Трухин, Ярослава Базаева, Ирина Пегова, Михаил Пореченков, Иван Ефремов, Василий Юркевич, Маша Уросова, Полина Руденко, Елена Валюшкина

Описание:

Ермак Мышкин - крайне неуверенный в себе человек, который всю жизнь хотел стать актёром. Помочь в исполнении его мечты берётся 8-летняя девочка Даша, которая преследует и свои цели: ей очень хочется выйти из тени своей звёздной мамы, ведь та не обращает на дочь никакого внимания. Даша предлагает Ермаку отправиться из Петербурга в Москву на кастинг нового мюзикла, при этом «путешествие» должно выглядеть так, будто Ермак похитил девочку...

Качество: WEB-DL 720p
Формат: MKV

Видео: h.264,4 900 Кбит/с, 1280x690
Аудио#1: Русский, (AC3, 2 ch, 384 Кбит/с)
скриншот  скриншот  скриншот  

Общее
Уникальный идентификатор : 199379209157422709959237163329762425913 (0x95FF09F6B0D7245BBCEA615A46F8FC39)
Полное имя : D:\Pozvonite.Myshkinu.2O18.O.WEB-DL.72Op.mkv
Формат : Matroska
Версия формата : Version 2
Размер файла : 3,03 Гбайт
Продолжительность : 1 ч. 22 м.
Режим общего битрейта : Переменный
Общий поток : 5285 Кбит/сек
Дата кодирования : UTC 2018-12-06 02:58:21
Программа кодирования : mkvmerge v8.3.0 ('Over the Horizon') 64bit
Библиотека кодирования : libebml v1.3.1 + libmatroska v1.4.2

Видео
Идентификатор : 1
Формат : AVC
Формат/Информация : Advanced Video Codec
Профиль формата : High@L4.1
Параметр CABAC формата : Да
Параметр RefFrames формата : 4 кадра
Идентификатор кодека : V_MPEG4/ISO/AVC
Продолжительность : 1 ч. 22 м.
Вид битрейта : Переменный
Битрейт : 4900 Кбит/сек
Максимальный битрейт : 5500 Кбит/сек
Ширина : 1280 пикселей
Высота : 690 пикселей
Соотношение сторон : 1,85:1
Режим частоты кадров : Постоянный
Частота кадров : 23,976 (24000/1001) кадра/сек
Стандарт вещания : Component
Цветовое пространство : YUV
Субдискретизация насыщенности : 4:2:0
Битовая глубина : 8 бит
Тип развёртки : Прогрессивная
Бит/(Пиксели*Кадры) : 0.226
Размер потока : 2,75 Гбайт (91%)
Default : Да
Forced : Нет
Цветовой диапазон : Limited
Основные цвета : BT.709
Характеристики трансфера : BT.709
Коэффициенты матрицы : BT.709

Аудио
Идентификатор : 2
Формат : AC-3
Формат/Информация : Audio Coding 3
Расширение режима : CM (complete main)
Параметр Endianness формата : Big
Идентификатор кодека : A_AC3
Продолжительность : 1 ч. 22 м.
Вид битрейта : Постоянный
Битрейт : 384 Кбит/сек
Каналы : 2 канала
Расположение каналов : Front: L R
Частота : 48,0 КГц
Частота кадров : 31,250 кадров/сек (1536 spf)
Метод сжатия : С потерями
Размер потока : 225 Мбайт (7%)
Default : Да
Forced : Нет

freegat.top



Скачать Позвоните Мышкину через торрент https://imgrutor.com/img/2018-12/06/6848589170391736843253648.jpg Скачать фильм Позвоните Мышкину через торрент бесплантно в хорошем качестве Описание: Ермак Мышкин - крайне неуверенный в себе человек, который всю жизнь хотел стать актёром. Помочь в исполнении его мечты берётся ... 7.3 10 3
Торрент: Зарегистрирован [2018-12-06 17:37] · скачан: 37 раз
Статус: T временная
Размер: 3.03 GB
Как cкачать? Как скачать Позвоните Мышкину через торрент | qTorrent

% Раздел Тема Автор DL S | L
Наши новые фильмы 2018-2019 [ 708 MB ] Позвоните Мышкину [2018 WEB-DLRip "Русский"] coc900 Скачать
1 | 0
Наши новые фильмы 2018-2019 [ 1.46 GB ] Позвоните Мышкину [2018 WEB-DLRip] killermax2013 Скачать
1 | 0
Наши фильмы (HD, WEB-DL 720p, 1080p) [ 3.28 GB ] Позвоните Мышкину [2018 WEB-DL 1080p] bober100 Скачать
2 | 0
T Наши фильмы (мультфильмы) cо спонсором показа (Новинки AVI/MKV) [ 1.37 GB ] Позвоните Мышкину [2018 WEB-DLRip] [Line] bober100 Скачать
2 | 0


>> Регистрируемся здесь <<






Отзывы и комментарии о схеме читаем и пишем здесь: ---> Отзывы и комментарии о схеме

Новые благодарочки в телеграм довольных пользователей:
скриншот   скриншот   скриншот   скриншот   скриншот
    Дорогой пользователь! Огромная просьба, поблагодарите релизера, оцените раздачу и оставьте свои комментарий, если Вы скачали Позвоните Мышкину через торрент бесплатно! Внесите свою лепту в развитие PiratBit!
    Комментировать посты могут только пользователи прошедшие не сложную регистрацию
    Показать сообщения:    

    Позвоните Мышкину через торрент
    Скачать бесплатно Позвоните Мышкину
    Позвоните Мышкину скачать торрент
    Позвоните Мышкину смотреть онлайн
    Cкачать фильм Позвоните Мышкину бесплатно
    Позвоните Мышкину скачать торрент в хорошем качестве
    Позвоните Мышкину смотреть онлайн бесплатно в хорошем качестве


    Вы не можете начинать темы
    Вы не можете отвечать на сообщения
    Вы не можете редактировать свои сообщения
    Вы не можете удалять свои сообщения
    Вы не можете голосовать в опросах
    Вы не можете прикреплять файлы к сообщениям
    Вы можете скачивать файлы