MEGA SALE -50% FORZA HORIZON 4 ULTIMATE+ВСЕ DLC+ОНЛАЙН всего за 599р. 299 руб. (супер цена). Внимание количество ограничено!!!

iTunes

1+1

iTunes

мы

iTunes

1

iTunes

Чернобыль

iTunes

Ральф против интернета

Лицензия

ПШазам

Лицензия

Игра престолов

Лицензия

30
pack

ВАЖНО

!!Акция!!

Alien_RageХит недели

RePack

Resident Evil 21

ИГРА 18+

pack

RePack

Metro:Exodus

!!Акция!!

Alien_Rage

RePack

fifa19

RePack

Assassins Creed: Odyssey

RePack

NEED FOR SPEED™ PAYBACK

3 сезон

9 сезон

Бесстыжие 9 сезон

Все сериалы

все сериалы на PB.wtf

RePack

FAR CRY 5
Ребята, катастрофически не хватает 7730р. для оплаты серверов за АВГУСТ (всвязи с блокировками трафик упал в 3 раза), 1-2р., выручайте.
  

Противостояние / The Standoff (Илисса Гудман) [2016, Комедия, WEB-DLRip-AVC] MVO [HDRezka Studio] freegat.top

Противостояние через торрент freegat.top

Раздают: 2 [ 0 KB/s ]
Размер: 1.46 GB | Добавлен: 9 мес. назад | Торрент скачан:92 раза
Скачать  

14-12-2018 05:19 Противостояние Скачать торрент  

Противостояние / The Standoff Год выпуска: 2016
Страна: США
Жанр: Комедия
Продолжительность: 01:30:13
Перевод: Профессиональный (многоголосый) | HDRezka Studio
Субтитры: Английские (полные)

Режиссер: Илисса Гудман

rating

В ролях:

Оливия Холт, Алекс Вулф, Сидни Парк, МакКэйли Миллер, Райан МакКэртан, Тимоти Гранадерос, Одри Уайтби, Сиара Ханна, Чандлер Мэсси

Описание:

В центре сюжета оказываются Эми Робертс и Фаррелл Беннетт – ученики старшей школы, которые учатся в одном классе и выдвинули свои кандидатуры на пост старосты. Вот только Фаррелл пользуется популярностью среди одноклассников, а Эми поддерживает лишь её лучшая подруга. Понимая, что шансов у неё не много, наша героиня получает неожиданный шанс проявить себя, когда по счастливой случайности она становится последним финалистом розыгрыша новенького автомобиля. Вот только на пути к заветной мечте у Эми вновь оказывается Фаррелл, который так же попал в число финалистов.

Качество: WEB-DLRip-AVC
Формат: MKV

Видео: 1024x576 (16:9), 23,976 fps, x264 ~1 739 kbps avg, 0.123 bit/pixel
Аудио#1: 48 kHz, AC3 Dolby Digital, 3/2 (L,R) ch, ~192.00 kbps avg | RUS (HDRezka Studio)
Аудио#2: 48 kHz, AC3 Dolby Digital, 3/2 (L,C,R,l,r) + LFE ch, ~384.00 kbps avg | ENG
скриншот  скриншот  скриншот  скриншот  скриншот  

Общее
Уникальный идентификатор : 153787483151345587449159647606627321184 (0x73B26452BA167743FDB0B5E4A2874560)
Полное имя : F:\OlLanDGroup\The.Standoff.2016.WEB-DLRip(AVC).OlLanDGroup.mkv
Формат : Matroska
Версия формата : Version 4 / Version 2
Размер файла : 1,46 Гбайт
Продолжительность : 1 ч. 30 м.
Общий поток : 2316 Кбит/сек
Название фильма : The.Standoff.2016 #TorpedoUK#
Дата кодирования : UTC 2018-12-13 15:29:00
Программа кодирования : mkvmerge v29.0.0 ('Like It Or Not') 64-bit
Библиотека кодирования : libebml v1.3.6 + libmatroska v1.4.9
Обложка : Yes
Attachments : cover_land.jpg / small_cover.jpg / small_cover_land.jpg / cover.jpg

Видео
Идентификатор : 1
Формат : AVC
Формат/Информация : Advanced Video Codec
Профиль формата : High@L4.1
Параметр CABAC формата : Да
Параметр ReFrames формата : 10 кадров
Идентификатор кодека : V_MPEG4/ISO/AVC
Продолжительность : 1 ч. 30 м.
Битрейт : 1739 Кбит/сек
Ширина : 1024 пикселя
Высота : 576 пикселей
Соотношение сторон : 16:9
Режим частоты кадров : Постоянный
Частота кадров : 23,976 (24000/1001) кадра/сек
Цветовое пространство : YUV
Субдискретизация насыщенности : 4:2:0
Битовая глубина : 8 бит
Тип развёртки : Прогрессивная
Бит/(Пиксели*Кадры) : 0.123
Размер потока : 1,09 Гбайт (75%)
Библиотека кодирования : x264 core 146 r2538 121396c
Настройки программы : cabac=1 / ref=10 / deblock=1:-2:-3 / analyse=0x3:0x113 / me=umh / subme=10 / psy=1 / psy_rd=0.95:0.07 / mixed_ref=1 / me_range=48 / chroma_me=1 / trellis=2 / 8x8dct=1 / cqm=0 / deadzone=21,11 / fast_pskip=1 / chroma_qp_offset=-3 / threads=6 / lookahead_threads=1 / sliced_threads=0 / nr=0 / decimate=1 / interlaced=0 / bluray_compat=0 / constrained_intra=0 / bframes=11 / b_pyramid=2 / b_adapt=2 / b_bias=0 / direct=3 / weightb=1 / open_gop=0 / weightp=2 / keyint=240 / keyint_min=23 / scenecut=40 / intra_refresh=0 / rc_lookahead=40 / rc=2pass / mbtree=0 / bitrate=1739 / ratetol=1.0 / qcomp=0.60 / qpmin=0 / qpmax=69 / qpstep=4 / cplxblur=20.0 / qblur=0.5 / vbv_maxrate=50000 / vbv_bufsize=62500 / nal_hrd=none / filler=0 / ip_ratio=1.40 / pb_ratio=1.30 / aq=1:1.00
Default : Да
Forced : Нет

Аудио #1
Идентификатор : 2
Формат : AC-3
Формат/Информация : Audio Coding 3
Расширение режима : CM (complete main)
Параметр Endianness формата : Big
Идентификатор кодека : A_AC3
Продолжительность : 1 ч. 30 м.
Вид битрейта : Постоянный
Битрейт : 192 Кбит/сек
Каналы : 2 канала
Расположение каналов : Front: L R
Частота : 48,0 КГц
Частота кадров : 31,250 кадров/сек (1536 spf)
Битовая глубина : 16 бит
Метод сжатия : С потерями
Размер потока : 124 Мбайт (8%)
Заголовок : MVO [HDRezka Studio]
Язык : Russian
Default : Да
Forced : Нет

Аудио #2
Идентификатор : 3
Формат : AC-3
Формат/Информация : Audio Coding 3
Расширение режима : CM (complete main)
Параметр Endianness формата : Big
Идентификатор кодека : A_AC3
Продолжительность : 1 ч. 30 м.
Вид битрейта : Постоянный
Битрейт : 384 Кбит/сек
Каналы : 6 каналов
Расположение каналов : Front: L C R, Side: L R, LFE
Частота : 48,0 КГц
Частота кадров : 31,250 кадров/сек (1536 spf)
Битовая глубина : 16 бит
Метод сжатия : С потерями
Размер потока : 248 Мбайт (17%)
Заголовок : [Original]
Язык : English
Default : Нет
Forced : Нет

Текст
Идентификатор : 4
Формат : UTF-8
Идентификатор кодека : S_TEXT/UTF8
Идентификатор кодека/Информация : UTF-8 Plain Text
Продолжительность : 1 ч. 27 м.
Битрейт : 95 бит/сек
Count of elements : 1751
Размер потока : 61,3 Кбайт (0%)
Язык : English
Default : Нет
Forced : Нет

Меню
00:00:00.000 : en:Opening Sequence
00:05:43.000 : en:Vote For Me
00:13:07.000 : en:We All Deserve To Win
00:17:29.000 : en:Who Wants The Car
00:25:07.000 : en:One Down
00:30:54.000 : en:The Definition Of Bad
00:36:00.000 : en:The Brownies
00:40:04.000 : en:I'm Not Late
00:47:31.000 : en:You're So Clever
00:51:42.000 : en:You'r Nothing Without Me
00:55:56.000 : en:I Am The Cat
00:59:52.000 : en:I Need Water
01:04:41.000 : en:Yes I Saw Him
01:13:29.000 : en:My Dad Got Fired
01:18:14.000 : en:We Have No Winner
01:27:45.000 : en:End Credits

freegat.top



Скачать Противостояние через торрент https://i106.fastpic.ru/big/2018/1213/2c/1b7b956405d1421fcbd15790e187f12c.png Скачать фильм Противостояние через торрент бесплантно в хорошем качестве Описание: В центре сюжета оказываются Эми Робертс и Фаррелл Беннетт – ученики старшей школы, которые учатся в одном классе и выдвинули свои ... 8.3 10 6
Торрент: Зарегистрирован [2018-12-14 05:19] · скачан: 92 раз
Статус: T временная
Размер: 1.46 GB
Как cкачать? Как скачать Противостояние через торрент | qTorrent

% Раздел Тема Автор DL S | L
Фильмы 2018 [DVDrip, WEB-DLRip, HDrip] (DUB, MVO) [ 1.46 GB ] Противостояние в Спэрроу-Крик / The Standoff at Sparrow Creek [2018 HDRip] [MVO] killermax2013 Скачать
1 | 0


>> Регистрируемся здесь <<






Отзывы и комментарии о схеме читаем и пишем здесь: ---> Отзывы и комментарии о схеме

Новые благодарочки в телеграм довольных пользователей:
скриншот   скриншот   скриншот   скриншот   скриншот
    Дорогой пользователь! Огромная просьба, поблагодарите релизера, оцените раздачу и оставьте свои комментарий, если Вы скачали Противостояние через торрент бесплатно! Внесите свою лепту в развитие PiratBit!
    Комментировать посты могут только пользователи прошедшие не сложную регистрацию
    Показать сообщения:    

    Противостояние через торрент
    Скачать бесплатно Противостояние
    Противостояние скачать торрент
    Противостояние смотреть онлайн
    Cкачать фильм Противостояние бесплатно
    Противостояние скачать торрент в хорошем качестве
    Противостояние смотреть онлайн бесплатно в хорошем качестве


    Вы не можете начинать темы
    Вы не можете отвечать на сообщения
    Вы не можете редактировать свои сообщения
    Вы не можете удалять свои сообщения
    Вы не можете голосовать в опросах
    Вы не можете прикреплять файлы к сообщениям
    Вы можете скачивать файлы