новый адрес пиратбит piratbit
Мега распродажа FORZA HORIZON 4 ULTIMATE+ВСЕ DLC+ОНЛАЙН всего за 499р. 349 руб. (супер цена). Внимание количество ограничено!!!

iTunes

1+1

iTunes

мы

iTunes

1

iTunes

Чернобыль

iTunes

Ральф против интернета

Лицензия

ПШазам

Лицензия

Игра престолов

Лицензия

30
pack

ВАЖНО

!!Акция!!

Alien_RageХит недели

RePack

Resident Evil 21

ИГРА 18+

pack

RePack

Metro:Exodus

!!Акция!!

Alien_Rage

RePack

fifa19

RePack

Assassins Creed: Odyssey

RePack

NEED FOR SPEED™ PAYBACK

3 сезон

9 сезон

Бесстыжие 9 сезон

Все сериалы

все сериалы на PB.wtf

RePack

FAR CRY 5
Ребята, катастрофически не хватает 1900р. для оплаты серверов за Октябрь (всвязи с блокировками трафик упал в 3 раза), 1-2р., выручайте.
  

Республика Z (Степан Бурнашев) [2018, боевик, приключения, ужасы, WEB-DL 720p] MVO ["Синема УС"] freegat.top

Республика Z через торрент freegat.top

Размер: 3.53 GB | Добавлен: 8 мес. назад | Торрент скачан:35 раз
Скачать  

08-03-2019 12:36 Республика Z Скачать торрент  

Республика Z Год выпуска: 2018
Страна: Россия
Жанр: боевик, приключения, ужасы
Продолжительность: 01:28:04
Перевод: Любительский (многоголосый) | "Синема УС"
Субтитры: Русские

Режиссер: Степан Бурнашев

rating

В ролях:

Георгий Бессонов, Ирина Михайлова, Дмитрий Баишев, Пётр Петров

Описание:

Два друга выживают, как могут в условиях всемирной эпидемии, но череда роковых обстоятельств ставит перед ними выбор - бежать, или стоять насмерть...

Качество: WEB-DL 720p
Формат: MKV

Видео: h.264, 5 347 kb/s, 1280x536
Аудио#1: Русский, (AC3, 2 ch, 384 Кбит/с)
скриншот  скриншот  скриншот  

Общее
Уникальный идентификатор : 172906000248462054018609568116354887401 (0x82147BFDFC80CC14AF1A3F54EA84AEE9)
Полное имя : D:\ReSpuBlEKa.Z.2O19.P.WEB-DL.72Op_KOSHARA.mkv
Формат : Matroska
Версия формата : Version 2
Размер файла : 3,53 Гбайт
Продолжительность : 1 ч. 28 м.
Режим общего битрейта : Переменный
Общий поток : 5733 Кбит/сек
Дата кодирования : UTC 2019-03-08 10:44:27
Программа кодирования : mkvmerge v8.3.0 ('Over the Horizon') 64bit
Библиотека кодирования : libebml v1.3.1 + libmatroska v1.4.2

Видео
Идентификатор : 1
Формат : AVC
Формат/Информация : Advanced Video Codec
Профиль формата : High@L4.1
Параметр CABAC формата : Да
Параметр RefFrames формата : 4 кадра
Идентификатор кодека : V_MPEG4/ISO/AVC
Продолжительность : 1 ч. 28 м.
Вид битрейта : Переменный
Битрейт : 5347 Кбит/сек
Максимальный битрейт : 6000 Кбит/сек
Ширина : 1280 пикселей
Высота : 536 пикселей
Соотношение сторон : 2,40:1
Режим частоты кадров : Постоянный
Частота кадров : 23,976 (24000/1001) кадра/сек
Стандарт вещания : Component
Цветовое пространство : YUV
Субдискретизация насыщенности : 4:2:0
Битовая глубина : 8 бит
Тип развёртки : Прогрессивная
Бит/(Пиксели*Кадры) : 0.318
Размер потока : 3,22 Гбайт (91%)
Default : Да
Forced : Нет
Цветовой диапазон : Limited
Основные цвета : BT.709
Характеристики трансфера : BT.709
Коэффициенты матрицы : BT.709

Аудио
Идентификатор : 2
Формат : AC-3
Формат/Информация : Audio Coding 3
Расширение режима : CM (complete main)
Параметр Endianness формата : Big
Идентификатор кодека : A_AC3
Продолжительность : 1 ч. 28 м.
Вид битрейта : Постоянный
Битрейт : 384 Кбит/сек
Каналы : 2 канала
Расположение каналов : Front: L R
Частота : 48,0 КГц
Частота кадров : 31,250 кадров/сек (1536 spf)
Метод сжатия : С потерями
Размер потока : 242 Мбайт (7%)
Default : Да
Forced : Нет

freegat.top



Скачать Республика Z через торрент https://b.radikal.ru/b20/1903/c5/d63362a992e5.jpg Скачать фильм Республика Z через торрент бесплантно в хорошем качестве Описание: Два друга выживают, как могут в условиях всемирной эпидемии, но череда роковых обстоятельств ставит перед ними выбор - бежать, ... 9.8 10 5
Торрент: Зарегистрирован [2019-03-08 12:36] · скачан: 35 раз
Статус: T временная
Размер: 3.53 GB
Как cкачать? Как скачать Республика Z через торрент | qTorrent

% Раздел Тема Автор DL S | L
T Наши фильмы (мультфильмы) cо спонсором показа (Новинки AVI/MKV) [ 3.92 GB ] Республика Z [2018 WEB-DL 1080p] MVO ["Синема УС"] bober100 Скачать
2 | 0
T Наши фильмы (мультфильмы) cо спонсором показа (Новинки AVI/MKV) [ 1.37 GB ] Республика Z [2018 WEB-DLRip] MVO ["Синема УС"] bober100 Скачать
1 | 0


>> Регистрируемся здесь <<






Отзывы и комментарии о схеме читаем и пишем здесь: ---> Отзывы и комментарии о схеме

Новые благодарочки в телеграм довольных пользователей:
скриншот   скриншот   скриншот   скриншот   скриншот
    Дорогой пользователь! Огромная просьба, поблагодарите релизера, оцените раздачу и оставьте свои комментарий, если Вы скачали Республика Z через торрент бесплатно! Внесите свою лепту в развитие PiratBit!
    Комментировать посты могут только пользователи прошедшие не сложную регистрацию
    Показать сообщения:    

    Республика Z через торрент
    Скачать бесплатно Республика Z
    Республика Z скачать торрент
    Республика Z смотреть онлайн
    Cкачать фильм Республика Z бесплатно
    Республика Z скачать торрент в хорошем качестве
    Республика Z смотреть онлайн бесплатно в хорошем качестве


    Вы не можете начинать темы
    Вы не можете отвечать на сообщения
    Вы не можете редактировать свои сообщения
    Вы не можете удалять свои сообщения
    Вы не можете голосовать в опросах
    Вы не можете прикреплять файлы к сообщениям
    Вы можете скачивать файлы