Ссылка на приватное зеркало всего за 1$. Внимание количество ограничено!!!

OK

1+1

iTunes

мы

OK

1

WEB-DLRip

Джокер

Пифагор

Ведьмак / The Witcher сериал

Лицензия

ПШазам

ОК

Оно 2

iTunes

30
pack

Вам бонус

ВАЖНО

!!Акция!!

Alien_RageХит недели

RePack

Resident Evil 21

ИГРА 18+

pack

RePack

jed

!!Акция!!

Alien_Rage

RePack

fifa19

RePack

Assassins Creed: Odyssey

RePack

NEED FOR SPEED™ PAYBACK

4 сезон

9 сезон

Бесстыжие 9 сезон

Все сериалы

все сериалы на PB.wtf

RePack

FAR CRY 5
  

Противостояние / The One (Джеймс Вонг) [2001 г., фантастика, боевик, триллер, BDRip 720p, Дубляж] (60 Fps) от R.G. HD-Films freegat.top

Противостояние через торрент freegat.top

Размер: 3.36 GB | Добавлен: 4 года 7 мес. назад | Торрент скачан:157 раз
Скачать  

04-06-2015 08:55 Противостояние Скачать торрент  

Противостояние / The One
Год выпуска: 2001
Страна: США
Жанр: фантастика, боевик, триллер
Продолжительность: 01:27:18
Перевод: Дубляж
Субтитры: Русские (полные)

Режиссер: Джеймс Вонг
Продюссер: Глен Морган, Чарльз Невирт, Джеймс Вонг
Сценарий: Глен Морган, Джеймс Вонг

Бюджет: $49 000 000
Премьера в мире: 2 ноября 2001

IMDB 5.90 (72 674)


В ролях: Джет Ли, Джейсон Стэйтем, Карла Гуджино, Делрой Линдо, Джеймс Моррисон, Дилан Бруно, Ричард Стейнметц, Стив Рэнкин, Такер Смоллвуд, Харриет Сэнсом Харрис,

Роли дублировали: Владимир Маслаков, Валерий Соловьев, Александра Кожевникова, Сергей Паршин, Станислав Концевич

Описание: Что делать, если твой мир рушится, когда в него вторгается безжалостный пришелец из параллельных миров? Стремясь стать сверхчеловеком, агент Межпространственного Бюро Расследований Юло совершает головокружительное сафари по параллельным мирам, охотясь за своими двойниками.Силы его растут с каждой новой жертвой, их жизненная энергия аккумулируется в нем, наделяя его невероятными способностями. Никто не знает, что случится с хрупким равновесием вселенных, если Юло достигнет своей цели — уничтожить всех двойников. Его мечта уже почти становится реальностью, когда на пути Юло становится Гэйб — полицейский из Лос-Анджелеса...


Качество: BDRip 720p / 60 Fps
Формат: MKV
Видео кодек: H.264
Аудио кодек: AC3
Видео: x264, 1280 x 536 (2,40:1), 5024 kbps, 60,000 fps, ( 0.122 bpp)
Аудио#1: AC-3, 48.0 KHz, 6 ch, 384 Kbps ( Dub )
Навигация по главам: есть



скриншот   скриншот   скриншот   скриншот   скриншот   скриншот  Автор рипа: slaventi-69
Общее
Уникальный идентификатор : 249042863559093885172220450235152934110 (0xBB5BE92C93B35FB6931CD645104124DE)
Полное имя : D:\The.One.(2001).BDRip.720p.(60 Fps).mkv
Формат : Matroska
Версия формата : Version 4 / Version 2
Размер файла : 3,36 Гбайт
Продолжительность : 1 ч. 27 м.
Общий поток : 5518 Кбит/сек
Название фильма : Противостояние / The One (2001) BDRip 720p (60 Fps)
Дата кодирования : UTC 2015-06-02 14:19:22
Программа кодирования : mkvmerge v6.2.0 ('Promised Land') built on Apr 28 2013 12:22:01
Библиотека кодирования : libebml v1.3.0 + libmatroska v1.4.0

Видео
Идентификатор : 1
Формат : AVC
Формат/Информация : Advanced Video Codec
Профиль формата : High@L4.1
Параметр CABAC формата : Да
Параметр ReFrames формата : 4 кадра
Идентификатор кодека : V_MPEG4/ISO/AVC
Продолжительность : 1 ч. 27 м.
Битрейт : 5024 Кбит/сек
Ширина : 1280 пикселей
Высота : 536 пикселей
Соотношение сторон : 2,40:1
Режим частоты кадров : Постоянный
Частота кадров : 60,000 кадров/сек
Цветовое пространство : YUV
Субдискретизация насыщенности : 4:2:0
Битовая глубина : 8 бит
Тип развёртки : Прогрессивная
Бит/(Пиксели*Кадры) : 0.122
Размер потока : 3,06 Гбайт (91%)
Заголовок : The One (2001) BDRip 720p (60 Fps).mkv
Библиотека кодирования : x264 core 130 r2273 b3065e6
Настройки программы : cabac=1 / ref=4 / deblock=1:-3:-3 / analyse=0x3:0x113 / me=umh / subme=8 / psy=1 / psy_rd=1.00:0.00 / mixed_ref=1 / me_range=24 / chroma_me=1 / trellis=2 / 8x8dct=1 / cqm=0 / deadzone=21,11 / fast_pskip=1 / chroma_qp_offset=-2 / threads=8 / lookahead_threads=2 / sliced_threads=0 / nr=0 / decimate=1 / interlaced=0 / bluray_compat=0 / constrained_intra=0 / bframes=4 / b_pyramid=2 / b_adapt=2 / b_bias=0 / direct=1 / weightb=1 / open_gop=0 / weightp=2 / keyint=250 / keyint_min=25 / scenecut=40 / intra_refresh=0 / rc_lookahead=40 / rc=crf / mbtree=1 / crf=16.0 / qcomp=0.60 / qpmin=0 / qpmax=69 / qpstep=4 / ip_ratio=1.40 / aq=1:1.00
Язык : English
Default : Да
Forced : Нет

Аудио
Идентификатор : 2
Формат : AC-3
Формат/Информация : Audio Coding 3
Расширение режима : CM (complete main)
Параметр Endianness формата : Big
Идентификатор кодека : A_AC3
Продолжительность : 1 ч. 27 м.
Вид битрейта : Постоянный
Битрейт : 384 Кбит/сек
Каналы : 6 каналов
Расположение каналов : Front: L C R, Side: L R, LFE
Частота : 48,0 КГц
Битовая глубина : 16 бит
Метод сжатия : С потерями
Размер потока : 240 Мбайт (7%)
Заголовок : Dub
Язык : Russian
Default : Да
Forced : Нет

Текст #1
Идентификатор : 3
Формат : UTF-8
Идентификатор кодека : S_TEXT/UTF8
Идентификатор кодека/Информация : UTF-8 Plain Text
Язык : Russian
Default : Нет
Forced : Нет

Текст #2
Идентификатор : 4
Формат : UTF-8
Идентификатор кодека : S_TEXT/UTF8
Идентификатор кодека/Информация : UTF-8 Plain Text
Язык : Russian
Default : Нет
Forced : Нет

Текст #3
Идентификатор : 5
Формат : UTF-8
Идентификатор кодека : S_TEXT/UTF8
Идентификатор кодека/Информация : UTF-8 Plain Text
Язык : Russian
Default : Нет
Forced : Нет

Меню
00:00:00.000 : en:Chapter 1
00:04:14.588 : en:Chapter 2
00:08:28.633 : en:Chapter 3
00:14:19.359 : en:Chapter 4
00:18:58.971 : en:Chapter 5
00:24:36.725 : en:Chapter 6
00:32:51.178 : en:Chapter 7
00:38:36.314 : en:Chapter 8
00:45:15.671 : en:Chapter 9
00:49:59.997 : en:Chapter 10
00:55:28.075 : en:Chapter 11
00:58:35.846 : en:Chapter 12
01:03:10.870 : en:Chapter 13
01:06:21.394 : en:Chapter 14
01:13:26.152 : en:Chapter 15
01:17:42.950 : en:Chapter 16


Противостояние скачать торрент


freegat.top



Скачать Противостояние через торрент http://pic.kartinco.top/images/11/e4p1d.jpg Скачать фильм Противостояние через торрент бесплантно в хорошем качестве Описание: Что делать, если твой мир рушится, когда в него вторгается безжалостный пришелец из параллельных миров? Стремясь стать ... 9.5 10 19
Info! Золотая раздача, скачанное не засчитывается.
Торрент: Зарегистрирован [2015-06-04 08:55] · скачан: 157 раз
Статус: √ проверено
Размер: 3.36 GB
Как cкачать? Как скачать Противостояние через торрент | qTorrent

28-11-2019 20:33  

Отключить всю рекламу на сайте

08-09-2016 15:54 Противостояние Скачать торрент  

охуевщий фильмец freegat.top



21-09-2016 04:56 Противостояние Скачать торрент  

Встаньте на раздачу плз, за три недели 150 мб только скачал ( Фильм хорош )freegat.top



12-01-2020 17:17 Противостояние Скачать торрент  

Кто-нибудь раздаст пожалуйста?freegat.top



    Дорогой пользователь! Огромная просьба, поблагодарите релизера, оцените раздачу и оставьте свои комментарий, если Вы скачали Противостояние через торрент бесплатно! Внесите свою лепту в развитие PiratBit!
    Комментировать посты могут только пользователи прошедшие не сложную регистрацию
    Показать сообщения:    

    Противостояние через торрент
    Скачать бесплатно Противостояние
    Противостояние скачать торрент
    Противостояние смотреть онлайн
    Cкачать фильм Противостояние бесплатно
    Противостояние скачать торрент в хорошем качестве
    Противостояние смотреть онлайн бесплатно в хорошем качестве


    Вы не можете начинать темы
    Вы не можете отвечать на сообщения
    Вы не можете редактировать свои сообщения
    Вы не можете удалять свои сообщения
    Вы не можете голосовать в опросах
    Вы не можете прикреплять файлы к сообщениям
    Вы можете скачивать файлы