Ссылка на приватное зеркало всего за 1$. Внимание количество ограничено!!!

OK

1+1

iTunes

мы

OK

1

WEB-DLRip

Джокер

Пифагор

Ведьмак / The Witcher сериал

Лицензия

ПШазам

ОК

Оно 2

iTunes

30
pack

Вам бонус

ВАЖНО

!!Акция!!

Alien_RageХит недели

RePack

Resident Evil 21

ИГРА 18+

pack

RePack

jed

!!Акция!!

Alien_Rage

RePack

fifa19

RePack

Assassins Creed: Odyssey

RePack

NEED FOR SPEED™ PAYBACK

4 сезон

9 сезон

Бесстыжие 9 сезон

Все сериалы

все сериалы на PB.wtf

RePack

FAR CRY 5
  

Мазафакер / Mutafukaz (Сёдзиро Нисими, Гийом Ренар) [2017, мультфильм, фантастика, боевик, WEBRip 720p] [MVO] (HDRezka Studio) freegat.top

Мазафакер через торрент freegat.top

Раздают: 19 [ 0 KB/s ]
Размер: 2.12 GB | Добавлен: 23 д. назад | Торрент скачан:143 раза
Скачать  

05-01-2019 16:19 Мазафакер Скачать торрент  

Мазафакер / Mutafukaz
Информация о фильме

Год выхода: 2017
Жанр: мультфильм, фантастика, боевик
Страна: Франция, Япония
Студия: Ankama, Studio 4°C
Продолжительность: 01:33:00
Перевод: Профессиональный (многоголосый закадровый) *HDRezka Studio*

Режиссер: Сёдзиро Нисими, Гийом Ренар

В ролях: Орелсан, Гринж, Федор Аткин, Жюльен Крамер, Эммануэль Карсен, Жильбер Леви, Келли Марот, Жереми Ковийо, Ален Дорваль

О фильме:
Анджелино живёт в суровом калифорнийском метрополисе под названием Тёмная Плоть Сити. Пленённый видом таинственной девушки он попадает в дтп на своём скутере и вскоре обнаруживает у себя странные видения и ужасные головные боли.

скриншот  
rating
Файл

Качество: WEBRip 720p
Кодек: AVC
Видео: 1280x538, 24,000 кадров/сек, ~2 800 Кбит/сек
Звук: 48 kHz, AC-3, 6ch, ~448 kbps
General
Unique ID : 297068627908811698525552671789241602915 (0xDF7D562B993A5044BB8A71C65E741363)
Complete name : E:\Mutafukaz.2017.WEBRip.720p.rus.5.1.HDREZKA.STUDIO.mkv
Format : Matroska
Format version : Version 4 / Version 2
File size : 2.12 GiB
Duration : 1h 33mn
Overall bit rate mode : Variable
Overall bit rate : 3 238 Kbps
Writing application : Lavf58.26.101
Writing library : Lavf58.26.101

Video
ID : 1
Format : AVC
Format/Info : Advanced Video Codec
Format profile : High@L4.1
Format settings, CABAC : Yes
Format settings, ReFrames : 1 frame
Codec ID : V_MPEG4/ISO/AVC
Duration : 1h 33mn
Bit rate mode : Variable
Bit rate : 2 726 Kbps
Maximum bit rate : 2 000 Kbps
Width : 1 280 pixels
Height : 538 pixels
Display aspect ratio : 2.40:1
Frame rate mode : Constant
Frame rate : 24.000 fps
Color space : YUV
Chroma subsampling : 4:2:0
Bit depth : 8 bits
Scan type : Progressive
Bits/(Pixel*Frame) : 0.165
Stream size : 1.79 GiB (84%)
Default : Yes
Forced : No
HANDLER_NAME : VideoHandler
DURATION : 01:33:52.255000000

Audio
ID : 2
Format : AC-3
Format/Info : Audio Coding 3
Mode extension : CM (complete main)
Format settings, Endianness : Big
Codec ID : A_AC3
Duration : 1h 33mn
Bit rate mode : Constant
Bit rate : 448 Kbps
Channel(s) : 6 channels
Channel positions : Front: L C R, Side: L R, LFE
Sampling rate : 48.0 KHz
Bit depth : 32 bits
Compression mode : Lossy
Delay relative to video : -5ms
Stream size : 301 MiB (14%)
Language : Russian
Default : Yes
Forced : No
HANDLER_NAME : SoundHandler
DURATION : 01:33:52.192000000
скриншот   скриншот   скриншот  
freegat.top



Скачать Мазафакер через торрент https://i111.fastpic.ru/big/2019/1226/86/ab993282f1379257202f2b4251dba186.png Скачать фильм Мазафакер через торрент бесплантно в хорошем качестве О фильме:Анджелино живёт в суровом калифорнийском метрополисе под названием Тёмная Плоть Сити. Пленённый видом таинственной девушки он ... 9 10 27
Info! Золотая раздача, скачанное не засчитывается.
Торрент: Зарегистрирован [2019-12-26 15:13] · скачан: 143 раз
Статус: √ проверено
Размер: 2.12 GB
Как cкачать? Как скачать Мазафакер через торрент | qTorrent

% Раздел Тема Автор DL S | L
# Зарубежные Мультфильмы (BDRip 1080p, 720p, Blu-ray, BD-Remux) [ 6.18 GB ] Мазафакер / Mutafukaz / MFKZ [2017 мультфильм BDRip 1080p] MVO [Flarrow Films] bober100 Скачать
11 | 0


Последний раз редактировалось: killermax2013 (2019-12-26 15:13), всего редактировалось 1 раз

28-11-2019 20:33  

Отключить всю рекламу на сайте


    Дорогой пользователь! Огромная просьба, поблагодарите релизера, оцените раздачу и оставьте свои комментарий, если Вы скачали Мазафакер через торрент бесплатно! Внесите свою лепту в развитие PiratBit!
    Комментировать посты могут только пользователи прошедшие не сложную регистрацию
    Показать сообщения:    

    Мазафакер через торрент
    Скачать бесплатно Мазафакер
    Мазафакер скачать торрент
    Мазафакер смотреть онлайн
    Cкачать фильм Мазафакер бесплатно
    Мазафакер скачать торрент в хорошем качестве
    Мазафакер смотреть онлайн бесплатно в хорошем качестве


    Вы не можете начинать темы
    Вы не можете отвечать на сообщения
    Вы не можете редактировать свои сообщения
    Вы не можете удалять свои сообщения
    Вы не можете голосовать в опросах
    Вы не можете прикреплять файлы к сообщениям
    Вы можете скачивать файлы