новый адрес пиратбит piratbit
Мега распродажа FORZA HORIZON 4 ULTIMATE+ВСЕ DLC+ОНЛАЙН всего за 499р. 349 руб. (супер цена). Внимание количество ограничено!!!

iTunes

1+1

iTunes

мы

iTunes

1

iTunes

Чернобыль

iTunes

Ральф против интернета

Лицензия

ПШазам

Лицензия

Игра престолов

Лицензия

30
pack

ВАЖНО

!!Акция!!

Alien_RageХит недели

RePack

Resident Evil 21

ИГРА 18+

pack

RePack

Metro:Exodus

!!Акция!!

Alien_Rage

RePack

fifa19

RePack

Assassins Creed: Odyssey

RePack

NEED FOR SPEED™ PAYBACK

3 сезон

9 сезон

Бесстыжие 9 сезон

Все сериалы

все сериалы на PB.wtf

RePack

FAR CRY 5
Ребята, катастрофически не хватает 1900р. для оплаты серверов за Октябрь (всвязи с блокировками трафик упал в 3 раза), 1-2р., выручайте.
  

Крымский мост. Сделано с любовью! (Тигран Кеосаян) [2018, Комедия, мелодрама, WEB-DL 720p] freegat.top

Крымский мост. Сделано с любовью! через торрент freegat.top

Раздают: 1 [ 37 KB/s ]
Размер: 4.02 GB | Добавлен: 8 мес. назад | Торрент скачан:144 раза
Скачать  

28-02-2019 11:09 Крымский мост. Сделано с любовью! Скачать торрент  

Крымский мост. Сделано с любовью! Год выпуска: 2018
Страна: Россия
Жанр: Комедия, мелодрама
Продолжительность: 01:39:22
Перевод: Не требуется
Субтитры: отсутствуют

Режиссер: Тигран Кеосаян

rating

В ролях:

Алексей Демидов, Катерина Шпица, Артем Ткаченко, Сергей Никоненко, Юрий Стоянов, Ирина Розанова, Сергей Газаров, Алёна Хмельницкая, Лаура Кеосаян, Александр Ильин

Описание:

Жаркое лето и ласковое море - в Керчи строится Крымский мост. У Димы - молодого и дерзкого строителя - есть хобби: из каждой смены студенток-археологов выбрать самую красивую и именно ее завоевать. И в этот раз случилось бы так же, если бы не московский пиарщик. Он привез на стройку телевизионщиков из Америки, и, конечно, именно он - роскошный карьерист на белом кабриолете - покорит сердце Вари. Или нет? Пока два соперника наперегонки очаровывают её, горячий кавказец Берик (по паспорту Бернард!) пытается реализовать свою мечту - жениться на американке и уехать в Голливуд.

Качество: WEB-DL 720p
Формат: MKV

Видео: h.264,5 412 kb/s, 1280x704
Аудио#1: Русский, (AC3, 2 ch, 384 Кбит/с)
скриншот  скриншот  скриншот  

Общее
Уникальный идентификатор : 216625781425040513687942365090647937852 (0xA2F89BA077774BE4884FB07D80C8933C)
Полное имя : E:\торреннты\KriMNaSh.MoSt.2O18.O.WEB-DL.72Op.mkv
Формат : Matroska
Версия формата : Version 2
Размер файла : 4,02 Гбайт
Продолжительность : 1 ч. 39 м.
Режим общего битрейта : Переменный
Общий поток : 5797 Кбит/сек
Дата кодирования : UTC 2019-02-28 04:52:09
Программа кодирования : mkvmerge v8.3.0 ('Over the Horizon') 64bit
Библиотека кодирования : libebml v1.3.1 + libmatroska v1.4.2

Видео
Идентификатор : 1
Формат : AVC
Формат/Информация : Advanced Video Codec
Профиль формата : High@L4.1
Настройки формата : CABAC / 4 Ref Frames
Параметр CABAC формата : Да
Параметр RefFrames формата : 4 кадра
Идентификатор кодека : V_MPEG4/ISO/AVC
Продолжительность : 1 ч. 39 м.
Вид битрейта : Переменный
Битрейт : 5412 Кбит/сек
Максимальный битрейт : 6000 Кбит/сек
Ширина : 1280 пикселей
Высота : 704 пикселя
Соотношение сторон : 16:9
Режим частоты кадров : Постоянный
Частота кадров : 23,976 (24000/1001) кадра/сек
Стандарт вещания : Component
Цветовое пространство : YUV
Субдискретизация насыщенности : 4:2:0
Битовая глубина : 8 бит
Тип развёртки : Прогрессивная
Бит/(Пиксели*Кадры) : 0.245
Размер потока : 3,68 Гбайт (91%)
Default : Да
Forced : Нет
Цветовой диапазон : Limited
Основные цвета : BT.709
Характеристики трансфера : BT.709
Коэффициенты матрицы : BT.709

Аудио
Идентификатор : 2
Формат : AC-3
Формат/Информация : Audio Coding 3
Идентификатор кодека : A_AC3
Продолжительность : 1 ч. 39 м.
Вид битрейта : Постоянный
Битрейт : 384 Кбит/сек
Каналы : 2 канала
Расположение каналов : Front: L R
Частота : 48,0 КГц
Частота кадров : 31,250 кадров/сек (1536 SPF)
Битовая глубина : 16 бит
Метод сжатия : С потерями
Размер потока : 273 Мбайт (7%)
ServiceKind/String : Complete Main
Default : Да
Forced : Нет

freegat.top



Скачать Крымский мост. Сделано с любовью! через торрент https://a.radikal.ru/a38/1902/3c/9f4b2fadcf0a.jpg Скачать фильм Крымский мост. Сделано с любовью! через торрент бесплантно в хорошем качестве Описание: Жаркое лето и ласковое море - в Керчи строится Крымский мост. У Димы - молодого и дерзкого строителя - есть хобби: из каждой ... 5.6 10 16
Торрент: Зарегистрирован [2019-02-28 11:09] · скачан: 144 раз
Статус: T временная
Размер: 4.02 GB
Как cкачать? Как скачать Крымский мост. Сделано с любовью! через торрент | qTorrent

% Раздел Тема Автор DL S | L
T Наши фильмы (мультфильмы) cо спонсором показа (Новинки AVI/MKV) [ 4.44 GB ] Крымский мост. Сделано с любовью! [2018 WEB-DL 1080p] bober100 Скачать
1 | 0
T Наши фильмы (мультфильмы) cо спонсором показа (Новинки AVI/MKV) [ 1.37 GB ] Крымский мост. Сделано с любовью! [2018 WEB-DLRip] bober100 Скачать
3 | 0


>> Регистрируемся здесь <<






Отзывы и комментарии о схеме читаем и пишем здесь: ---> Отзывы и комментарии о схеме

Новые благодарочки в телеграм довольных пользователей:
скриншот   скриншот   скриншот   скриншот   скриншот
    Дорогой пользователь! Огромная просьба, поблагодарите релизера, оцените раздачу и оставьте свои комментарий, если Вы скачали Крымский мост. Сделано с любовью! через торрент бесплатно! Внесите свою лепту в развитие PiratBit!
    Комментировать посты могут только пользователи прошедшие не сложную регистрацию
    Показать сообщения:    

    Крымский мост. Сделано с любовью! через торрент
    Скачать бесплатно Крымский мост. Сделано с любовью!
    Крымский мост. Сделано с любовью! скачать торрент
    Крымский мост. Сделано с любовью! смотреть онлайн
    Cкачать фильм Крымский мост. Сделано с любовью! бесплатно
    Крымский мост. Сделано с любовью! скачать торрент в хорошем качестве
    Крымский мост. Сделано с любовью! смотреть онлайн бесплатно в хорошем качестве


    Вы не можете начинать темы
    Вы не можете отвечать на сообщения
    Вы не можете редактировать свои сообщения
    Вы не можете удалять свои сообщения
    Вы не можете голосовать в опросах
    Вы не можете прикреплять файлы к сообщениям
    Вы можете скачивать файлы