MEGA NEWS Получи личный уникальный адрес сайта и защити себя от блокировок. Внимание количество ограничено!!!

iTunes

1+1

iTunes

мы

iTunes

1

iTunes

Чернобыль

iTunes

Ральф против интернета

Лицензия

ПШазам

Лицензия

Игра престолов

Лицензия

30
pack

ВАЖНО

!!Акция!!

Alien_RageХит недели

RePack

Resident Evil 21

ИГРА 18+

pack

RePack

Metro:Exodus

!!Акция!!

Alien_Rage

RePack

fifa19

RePack

Assassins Creed: Odyssey

RePack

NEED FOR SPEED™ PAYBACK

3 сезон

9 сезон

Бесстыжие 9 сезон

Все сериалы

все сериалы на PB.wtf

RePack

FAR CRY 5
Ребята, катастрофически не хватает 1900р. для оплаты серверов за АВГУСТ (всвязи с блокировками трафик упал в 3 раза), 1-2р., выручайте.
  

Голем: Начало / The Golem (Дорон Пас, Йоав Пас) [2018, Ужасы, BDRip 720p] Dub [iTunes], MVO [HDRezka Studio] - ExKinoRay freegat.top

Голем: Начало через торрент freegat.top

Раздают: 15 [ 128 KB/s ] Качают: 1 [ 0 KB/s ]
Размер: 3.44 GB | Добавлен: 8 д. назад | Торрент скачан:71 раз
Скачать  

25-03-2019 04:39 Голем: Начало Скачать торрент  

Название: Голем: Начало
Оригинальное название: The Golem
Год выпуска: 2018
Жанр: Ужасы
Режиссер: Дорон Пас, Йоав Пас
В ролях: Хани Фюрстенберг, Ишай Голан, Брини Фюрстенберг, Эди Кветнер, Ленни Равич, Ольга Сафронова

Описание:
Литва, 1673 год. Селянка Ханна уже семь лет скорбит об умершем сыне и находит утешение в изучении священных еврейских писаний. Когда её деревне начинает угрожать опасность вторжения, Ханна решает провести магический ритуал и создаёт чудовище - голема. Последствия этого неоднозначного поступка коснутся всех местных жителей.


rating

Выпущено: Израиль, PSB Films
Продолжительность: 01:34:51
Перевод: Дублированный | iTunes
Профессиональный (многоголосый, закадровый) | HDRezka Studio

БЕЗ КАКОЙ-ЛИБО РЕКЛАМЫ!

Формат: MKV
Качество: BDRip 720p
Видео: MPEG-4 AVC, 1280x536 (2.40:1), 24.000 fps, 3909 Kbps, 0.237 bit/pixel
Аудио 1: 48 kHz, AC3, 5.1, 384 Kbps | Dub | RUS |
Аудио 2: 48 kHz, AC3, 2.0, 256 Kbps | MVO | RUS |
Аудио 3: 48 kHz, AC3, 5.1, 640 Kbps | Оригинал | ENG |
Субтитры: Английские (full)
General
Unique ID : 185795962697053148313565670516655337912 (0x8BC700351D1BE72F8E30CA4B57EB31B8)
Complete name : F:\itunes20182019\The.Golem.2018.2xRus.BDRip.720p.ExKinoRay.mkv
Format : Matroska
Format version : Version 2
File size : 3.44 GiB
Duration : 1 h 34 min
Overall bit rate : 5 188 kb/s
Movie name : The Golem 2018 from ExKinoRay
Encoded date : UTC 2019-10-05 04:25:32
Writing application : mkvmerge v5.6.0 ('Kenya Kane') built on May 27 2012 16:44:04
Writing library : libebml v1.2.3 + libmatroska v1.3.0

Video
ID : 1
Format : AVC
Format/Info : Advanced Video Codec
Format profile : High@L4.1
Format settings, CABAC : Yes
Format settings, ReFrames : 12 frames
Codec ID : V_MPEG4/ISO/AVC
Duration : 1 h 34 min
Bit rate : 3 909 kb/s
Width : 1 280 pixels
Height : 536 pixels
Display aspect ratio : 2.40:1
Frame rate mode : Constant
Frame rate : 24.000 FPS
Color space : YUV
Chroma subsampling : 4:2:0
Bit depth : 8 bits
Scan type : Progressive
Bits/(Pixel*Frame) : 0.237
Stream size : 2.52 GiB (73%)
Title : Enigma
Writing library : x264 core 152 r2851 ba24899
Encoding settings : cabac=1 / ref=12 / deblock=1:-2:-2 / analyse=0x3:0x113 / me=umh / subme=11 / psy=1 / psy_rd=1.05:0.15 / mixed_ref=1 / me_range=32 / chroma_me=1 / trellis=2 / 8x8dct=1 / cqm=0 / deadzone=21,11 / fast_pskip=0 / chroma_qp_offset=-3 / threads=12 / lookahead_threads=3 / sliced_threads=0 / nr=0 / decimate=0 / interlaced=0 / bluray_compat=0 / constrained_intra=0 / bframes=10 / b_pyramid=2 / b_adapt=2 / b_bias=0 / direct=3 / weightb=1 / open_gop=0 / weightp=2 / keyint=240 / keyint_min=24 / scenecut=40 / intra_refresh=0 / rc=2pass / mbtree=0 / bitrate=3909 / ratetol=1.0 / qcomp=0.60 / qpmin=0 / qpmax=51 / qpstep=4 / cplxblur=20.0 / qblur=0.5 / ip_ratio=1.40 / pb_ratio=1.30 / aq=1:1.00
Language : English
Default : Yes
Forced : No
Color range : Limited
Color primaries : BT.709
Transfer characteristics : BT.709
Matrix coefficients : BT.709

Audio #1
ID : 2
Format : AC-3
Format/Info : Audio Coding 3
Mode extension : CM (complete main)
Format settings, Endianness : Big
Codec ID : A_AC3
Duration : 1 h 34 min
Bit rate mode : Constant
Bit rate : 384 kb/s
Channel(s) : 6 channels
Channel positions : Front: L C R, Side: L R, LFE
Sampling rate : 48.0 kHz
Frame rate : 31.250 FPS (1536 spf)
Compression mode : Lossy
Stream size : 261 MiB (7%)
Title : iTunes
Language : Russian
Default : Yes
Forced : No

Audio #2
ID : 3
Format : AC-3
Format/Info : Audio Coding 3
Mode extension : CM (complete main)
Format settings, Endianness : Big
Codec ID : A_AC3
Duration : 1 h 34 min
Bit rate mode : Constant
Bit rate : 256 kb/s
Channel(s) : 2 channels
Channel positions : Front: L R
Sampling rate : 48.0 kHz
Frame rate : 31.250 FPS (1536 spf)
Compression mode : Lossy
Stream size : 174 MiB (5%)
Title : MVO
Language : Russian
Default : No
Forced : No

Audio #3
ID : 4
Format : AC-3
Format/Info : Audio Coding 3
Mode extension : CM (complete main)
Format settings, Endianness : Big
Codec ID : A_AC3
Duration : 1 h 34 min
Bit rate mode : Constant
Bit rate : 640 kb/s
Channel(s) : 6 channels
Channel positions : Front: L C R, Side: L R, LFE
Sampling rate : 48.0 kHz
Frame rate : 31.250 FPS (1536 spf)
Compression mode : Lossy
Stream size : 434 MiB (12%)
Language : English
Default : No
Forced : No

Text
ID : 5
Format : UTF-8
Codec ID : S_TEXT/UTF8
Codec ID/Info : UTF-8 Plain Text
Language : English
Default : No
Forced : No

Menu
00:00:00.000 : en:00:00:00.000
00:03:47.292 : en:00:03:47.292
00:10:01.833 : en:00:10:01.833
00:15:08.917 : en:00:15:08.917
00:24:31.458 : en:00:24:31.458
00:32:14.792 : en:00:32:14.792
00:37:15.125 : en:00:37:15.125
00:46:17.875 : en:00:46:17.875
00:54:08.667 : en:00:54:08.667
00:59:55.833 : en:00:59:55.833
01:16:54.708 : en:01:16:54.708
01:31:33.917 : en:01:31:33.917


Релиз от:

Автор релиза: freegat.top



Скачать Голем: Начало через торрент https://d.radikal.ru/d17/1902/77/6b040347801a.jpg Скачать фильм Голем: Начало через торрент бесплантно в хорошем качестве Описание: Литва, 1673 год. Селянка Ханна уже семь лет скорбит об умершем сыне и находит утешение в изучении священных еврейских писаний. ... 8.2 10 5
Info! Золотая раздача, скачанное не засчитывается.
Торрент: Зарегистрирован [2019-10-06 15:18] · скачан: 71 раз
Статус: √ проверено
Размер: 3.44 GB
Как cкачать? Как скачать Голем: Начало через торрент | qTorrent

% Раздел Тема Автор DL S | L
T Фильмы 2018 [DVDrip, WEB-DLRip, HDrip] (DUB, MVO) [ 1.37 GB ] Голем: Начало / The Golem [2018 BDRip] MVO [HDRezka Studio] - ExKinoRay Enigma2010 Скачать
37 | 3
T Фильмы (WEB-DL 720p, 1080p) [ 3.45 GB ] Голем: Начало / The Golem [2018 WEB-DL 1080p] MVO [HDRezka Studio] - ExKinoRay Enigma2010 Скачать
6 | 0


Последний раз редактировалось: Enigma2010 (2019-10-06 15:23), всего редактировалось 2 раз(а)


>> Регистрируемся здесь <<






Отзывы и комментарии о схеме читаем и пишем здесь: ---> Отзывы и комментарии о схеме

Новые благодарочки в телеграм довольных пользователей:
скриншот   скриншот   скриншот   скриншот   скриншот

25-03-2019 04:52 Голем: Начало Скачать торрент  

Спасибо freegat.top



06-10-2019 15:19 Голем: Начало Скачать торрент  

Замена на BDRip (720p), добавлен дубляж.freegat.top



    Дорогой пользователь! Огромная просьба, поблагодарите релизера, оцените раздачу и оставьте свои комментарий, если Вы скачали Голем: Начало через торрент бесплатно! Внесите свою лепту в развитие PiratBit!
    Комментировать посты могут только пользователи прошедшие не сложную регистрацию
    Показать сообщения:    

    Голем: Начало через торрент
    Скачать бесплатно Голем: Начало
    Голем: Начало скачать торрент
    Голем: Начало смотреть онлайн
    Cкачать фильм Голем: Начало бесплатно
    Голем: Начало скачать торрент в хорошем качестве
    Голем: Начало смотреть онлайн бесплатно в хорошем качестве


    Вы не можете начинать темы
    Вы не можете отвечать на сообщения
    Вы не можете редактировать свои сообщения
    Вы не можете удалять свои сообщения
    Вы не можете голосовать в опросах
    Вы не можете прикреплять файлы к сообщениям
    Вы можете скачивать файлы