MEGA SALE -50% FORZA HORIZON 4 ULTIMATE+ВСЕ DLC+ОНЛАЙН всего за 599р. 299 руб. (супер цена). Внимание количество ограничено!!!

iTunes

1+1

iTunes

мы

iTunes

1

iTunes

Чернобыль

iTunes

Ральф против интернета

Лицензия

ПШазам

Лицензия

Игра престолов

Лицензия

30
pack

ВАЖНО

!!Акция!!

Alien_RageХит недели

RePack

Resident Evil 21

ИГРА 18+

pack

RePack

Metro:Exodus

!!Акция!!

Alien_Rage

RePack

fifa19

RePack

Assassins Creed: Odyssey

RePack

NEED FOR SPEED™ PAYBACK

3 сезон

9 сезон

Бесстыжие 9 сезон

Все сериалы

все сериалы на PB.wtf

RePack

FAR CRY 5
Ребята, катастрофически не хватает 7730р. для оплаты серверов за АВГУСТ (всвязи с блокировками трафик упал в 3 раза), 1-2р., выручайте.
  

Плюс один / Plus One (Джефф Чан, Эндрю Раймер) [2019, Драма, мелодрама, комедия, BDRip 1080p] MVO [HDRezka Studio] freegat.top

Плюс один через торрент freegat.top

Раздают: 1 [ 0 KB/s ]
Размер: 6.58 GB | Добавлен: 26 д. назад | Торрент скачан:64 раза
Скачать  

16-06-2019 12:34 Плюс один Скачать торрент  

Плюс один / Plus One
Год выпуска: 2019
Страна: США
Жанр: Драма, мелодрама, комедия
Продолжительность: 01:38:33
Перевод: Профессиональный (многоголосый) | HDRezka Studio
Субтитры: Английские

Режиссер: Джефф Чан, Эндрю Раймер

rating

В ролях: Майя Эрскин, Джек Куэйд, Эд Бегли мл., Алекс Анфанджер, Кирстен Армстронг, Дженнифер Бартельс, Джон Басс, Джо Бэйз, Эмма Белл, Бек Беннетт

Описание: Чтобы пережить лето полное свадеб, давние друзья-одиночки, Бен и Элис, соглашаются стать плюс один друг для друга на каждой свадьбе.

Качество: BDRip 1080p
Формат: MKV

Видео: MPEG-4 AVC, 7853 Кбит/с, 1920x806, 23.976 кадр/с
Аудио: Русский (AC3, 2 ch, 192 Кбит/с)
Аудио: английский (DTS, 6 ch, 1509 Кбит/с)
скриншот  скриншот  скриншот  скриншот  скриншот  

Общее
Уникальный идентификатор : 190045253340842305482661615298848001892 (0x8EF9626955A94475A453143632B48F64)
Полное имя : D:ЗагрузкиPlus.One.2019.x264.BDRip.(1080p).OlLanDGroup.mkv
Формат : Matroska
Версия формата : Version 4 / Version 2
Размер файла : 6,58 Гбайт
Продолжительность : 1 ч. 38 м.
Общий поток : 9557 Кбит/сек
Название фильма : Плюс один.2019.Rip by: ollan
Дата кодирования : UTC 2019-08-22 18:09:38
Программа кодирования : mkvmerge v6.5.0 ('Isn't she lovely') built on Oct 20 2013 12:50:05
Библиотека кодирования : libebml v1.3.0 + libmatroska v1.4.1
Обложка : Yes
Attachments : Cover - Plus.One.png

Видео
Идентификатор : 1
Формат : AVC
Формат/Информация : Advanced Video Codec
Профиль формата : High@L4.1
Настройки формата : CABAC / 5 Ref Frames
Параметр CABAC формата : Да
Параметр ReFrames формата : 5 кадров
Идентификатор кодека : V_MPEG4/ISO/AVC
Продолжительность : 1 ч. 38 м.
Битрейт : 7853 Кбит/сек
Ширина : 1920 пикселей
Высота : 806 пикселей
Соотношение сторон : 2,40:1
Режим частоты кадров : Постоянный
Частота кадров : 23,976 (24000/1001) кадра/сек
Цветовое пространство : YUV
Субдискретизация насыщенности : 4:2:0
Битовая глубина : 8 бит
Тип развёртки : Прогрессивная
Бит/(Пиксели*Кадры) : 0.212
Размер потока : 5,28 Гбайт (80%)
Библиотека кодирования : x264 core 146 r2538 121396c
Настройки программы : cabac=1 / ref=5 / deblock=1:-3:-3 / analyse=0x3:0x133 / me=umh / subme=11 / psy=1 / psy_rd=0.95:0.05 / mixed_ref=1 / me_range=64 / chroma_me=1 / trellis=2 / 8x8dct=1 / cqm=0 / deadzone=21,11 / fast_pskip=0 / chroma_qp_offset=-3 / threads=12 / lookahead_threads=3 / sliced_threads=0 / nr=0 / decimate=0 / interlaced=0 / bluray_compat=0 / constrained_intra=0 / bframes=10 / b_pyramid=2 / b_adapt=2 / b_bias=0 / direct=3 / weightb=1 / open_gop=0 / weightp=2 / keyint=240 / keyint_min=23 / scenecut=40 / intra_refresh=0 / rc_lookahead=40 / rc=2pass / mbtree=0 / bitrate=7853 / ratetol=1.0 / qcomp=0.60 / qpmin=0 / qpmax=69 / qpstep=4 / cplxblur=20.0 / qblur=0.5 / vbv_maxrate=50000 / vbv_bufsize=62500 / nal_hrd=none / filler=0 / ip_ratio=1.40 / pb_ratio=1.30 / aq=1:1.00
Язык : English
Default : Да
Forced : Нет

Аудио #1
Идентификатор : 2
Формат : AC-3
Формат/Информация : Audio Coding 3
Идентификатор кодека : A_AC3
Продолжительность : 1 ч. 38 м.
Вид битрейта : Постоянный
Битрейт : 192 Кбит/сек
Каналы : 2 канала
Расположение каналов : Front: L R
Частота : 48,0 КГц
Частота кадров : 31,250 кадров/сек (1536 SPF)
Битовая глубина : 16 бит
Метод сжатия : С потерями
Размер потока : 135 Мбайт (2%)
Заголовок : HDRezka Studio
Язык : Russian
Service kind : Complete Main
Default : Да
Forced : Нет

Аудио #2
Идентификатор : 3
Формат : DTS
Формат/Информация : Digital Theater Systems
Идентификатор кодека : A_DTS
Продолжительность : 1 ч. 38 м.
Вид битрейта : Постоянный
Битрейт : 1509 Кбит/сек
Каналы : 6 каналов
Расположение каналов : Front: L C R, Side: L R, LFE
Частота : 48,0 КГц
Частота кадров : 93,750 кадра/сек (512 SPF)
Битовая глубина : 24 бит
Метод сжатия : С потерями
Размер потока : 1,04 Гбайт (16%)
Язык : English
Default : Нет
Forced : Нет

Текст
Идентификатор : 4
Формат : UTF-8
Идентификатор кодека : S_TEXT/UTF8
Идентификатор кодека/Информация : UTF-8 Plain Text
Заголовок : Full
Язык : English
Default : Нет
Forced : Нет

Меню
00:00:00.000 : en:Chapter 01
00:07:10.263 : en:Chapter 02
00:14:02.424 : en:Chapter 03
00:24:10.323 : en:Chapter 04
00:32:50.468 : en:Chapter 05
00:50:10.298 : en:Chapter 06
01:17:48.455 : en:Chapter 07
01:34:42.009 : en:Chapter 08

freegat.top



Скачать Плюс один через торрент https://b.radikal.ru/b22/1908/97/b93ff57c3675.png Скачать фильм Плюс один через торрент бесплантно в хорошем качестве Описание: Чтобы пережить лето полное свадеб, давние друзья-одиночки, Бен и Элис, соглашаются стать плюс один друг для друга на каждой ... 10 10 5
Торрент: Зарегистрирован [2019-08-22 19:00] · скачан: 64 раз
Статус: T временная
Размер: 6.58 GB
Как cкачать? Как скачать Плюс один через торрент | qTorrent

% Раздел Тема Автор DL S | L
Фильмы 2019 [DVDrip, WEB-DLRip, HDrip] (DUB, MVO) [ 1.42 GB ] Плюс один / Plus One [2019 BDRip] - Twi7ter Скачать
18 | 0
Фильмы 2019 [DVDrip, WEB-DLRip, HDrip] (DUB, MVO) [ 1.82 GB ] Плюс один / Plus One [2019 BDRip-AVC] +MVO [HDRezka Studio] bober100 Скачать
1 | 0
Фильмы [HD 720p, 1080p] (Хороший звук DUB, MVO) [ 5.79 GB ] Плюс один / Plus One [2019 BDRip 1080p] +MVO [HDRezka Studio] bober100 Скачать
6 | 0
Фильмы [HD 720p, 1080p] (Хороший звук DUB, MVO) [ 3.3 GB ] Плюс один / Plus One [2019 BDRip 720p] +MVO [HDRezka Studio] bober100 Скачать
5 | 0
Фильмы 2019 [DVDrip, WEB-DLRip, HDrip] (DUB, MVO) [ 1.45 GB ] Плюс один / Plus One [2019 BDRip] bober100 Скачать
5 | 0
Гонзо [ 3.08 GB ] Плюс Один / Plus One [2016 All Sex Oral Gonzo Compilation Threesomes DVDRip 406p] Split CD sheker187 Скачать
1 | 0
Гонзо [ 5.12 GB ] Плюс Один / Plus One [2016 Compilation Threesomes WEB-DLRip Оригинальный] Pir@tya2010 Скачать
3 | 0


>> Регистрируемся здесь <<






Отзывы и комментарии о схеме читаем и пишем здесь: ---> Отзывы и комментарии о схеме

Новые благодарочки в телеграм довольных пользователей:
скриншот   скриншот   скриншот   скриншот   скриншот

11-09-2019 10:56 Плюс один Скачать торрент  

Топик был перенесен из форума Фильмы [HD 720p, 1080p] (Хороший звук DUB, MVO) в форум Для поглощённых раздач


bober100freegat.top



    Дорогой пользователь! Огромная просьба, поблагодарите релизера, оцените раздачу и оставьте свои комментарий, если Вы скачали Плюс один через торрент бесплатно! Внесите свою лепту в развитие PiratBit!
    Комментировать посты могут только пользователи прошедшие не сложную регистрацию
    Показать сообщения:    

    Плюс один через торрент
    Скачать бесплатно Плюс один
    Плюс один скачать торрент
    Плюс один смотреть онлайн
    Cкачать фильм Плюс один бесплатно
    Плюс один скачать торрент в хорошем качестве
    Плюс один смотреть онлайн бесплатно в хорошем качестве


    Вы не можете начинать темы
    Вы не можете отвечать на сообщения
    Вы не можете редактировать свои сообщения
    Вы не можете удалять свои сообщения
    Вы не можете голосовать в опросах
    Вы не можете прикреплять файлы к сообщениям
    Вы можете скачивать файлы