MEGA SALE -50% FORZA HORIZON 4 ULTIMATE+ВСЕ DLC+ОНЛАЙН всего за 599р. 299 руб. (супер цена). Внимание количество ограничено!!!

iTunes

1+1

iTunes

мы

iTunes

1

iTunes

Чернобыль

1 сезон

Ральф против интернета

Лицензия

ПШазам

Лицензия

Игра престолов

Лицензия

30
pack

ВАЖНО

!!Акция!!

Alien_RageХит недели

RePack

Resident Evil 21

ИГРА 18+

pack

RePack

Metro:Exodus

!!Акция!!

Alien_Rage

RePack

fifa19

RePack

Assassins Creed: Odyssey

RePack

NEED FOR SPEED™ PAYBACK

3 сезон

9 сезон

Бесстыжие 9 сезон

Все сериалы

все сериалы на PB.wtf

RePack

FAR CRY 5
Ребята, катастрофически не хватает 7730р. для оплаты серверов за ИЮЛЬ (всвязи с блокировками трафик упал в 3 раза), 1-2р., выручайте.
  

Слава моего отца / La gloire de mon pere (Ив Робер) [1990, Драма, приключения, биография, BDRip 720p] VO - KORSAR freegat.top

Слава моего отца через торрент freegat.top

Раздают: 2 [ 0 KB/s ]
Размер: 9.41 GB | Добавлен: 1 мес. 7 д. назад | Торрент скачан:4 раза
Скачать  

13-07-2019 17:28 Слава моего отца Скачать торрент  

Слава моего отца / La gloire de mon pèreГод выпуска: 1990
Выпущено: Франция, Centre National de la Cinématographie (CNC), Films de la Guéville, Gaumont, TF1 Films Production
Жанр: драма, приключения, биография
Продолжительность: 01:50:58
Перевод: Профессиональный (одноголосый закадровый) ВидеоСервис
Субтитры: Французские, английские.
Навигация по главам: Есть

Режиссёр: Ив Робер
В ролях: Филипп Кобер, Натали Руссел, Дидье Пэн, Тереза Лиотар, Жюльен Сьямака, Викториен Деламар, Йорис Молинас, Бенуа Мартин, Поль Кроше, Пьер Магелон

Описание: Экранизация автобиографического романа известного французского писателя Марселя Паньоля, первая часть дилогии. С теплотой, любовью, юмором и необыкновенной точностью показываются зрителю детские годы мальчика Марселя. Его окружают прекрасная горная природа, друзья, семейная забота и любовь. И, разумеется, юного героя ждут разнообразные приключения.

rating

Качество: BDRip 720p
Формат: MKV
Видео: MPEG-4 AVC, 11500 Кбит/сек, 1278x692, 23.976 кадра/сек

Аудио #1: AC3, 2 ch, 192 Кбит/сек | Русский, профессиональный (одноголосый закадровый) ВидеоСервис
Аудио #2: AC3, 6 ch, 448 Кбит/сек | Французский, оригинал



Релиз от:
x264 [info]: frame I:948 Avg QP:15.56 size:262214
x264 [info]: frame P:33866 Avg QP:18.98 size:110758
x264 [info]: frame B:124820 Avg QP:20.60 size: 44618
x264 [info]: consecutive B-frames: 2.4% 2.4% 5.2% 15.5% 20.0% 44.2% 5.5% 1.2% 1.0% 0.8% 0.3% 0.1% 0.1% 0.4% 0.3% 0.7% 0.1%
=========================================================================================================================
General
Unique ID : 257577506206317386462562691802062632326 (0xC1C79F8B5E26E7426422E6A7C4AFB586)
Format : Matroska
Format version : Version 4
File size : 9.41 GiB
Duration : 1 h 50 min
Overall bit rate : 12.1 Mb/s
Movie name : La gloire de mon père AKA My Father's Glory [1990]
Encoded date : UTC 2019-06-11 19:39:16
Writing application : mkvmerge v25.0.0 ('Prog Noir') 64-bit
Writing library : libebml v1.3.6 + libmatroska v1.4.9

Video
ID : 1
Format : AVC
Format/Info : Advanced Video Codec
Format profile : High@L4.1
Format settings : CABAC / 9 Ref Frames
Format settings, CABAC : Yes
Format settings, Reference frames : 9 frames
Codec ID : V_MPEG4/ISO/AVC
Duration : 1 h 50 min
Bit rate : 11.5 Mb/s
Width : 1 278 pixels
Height : 692 pixels
Display aspect ratio : 1.85:1
Frame rate mode : Constant
Frame rate : 23.976 (24000/1001) FPS
Color space : YUV
Chroma subsampling : 4:2:0
Bit depth : 8 bits
Scan type : Progressive
Bits/(Pixel*Frame) : 0.542
Stream size : 8.91 GiB (95%)
Title : La.gloire.de.mon.père.AKA.My.Father's.Glory.1990.4KRemaster.BDRip.720p.x264-MM
Writing library : x264 core 152 r2851kMod ba24899
Encoding settings : cabac=1 / ref=9 / deblock=1:-3:-2 / analyse=0x3:0x113 / me=umh / subme=11 / psy=1 / fade_compensate=0.00 / psy_rd=1.05:0.00 / mixed_ref=1 / me_range=48 / chroma_me=1 / trellis=2 / 8x8dct=1 / cqm=0 / deadzone=21,11 / fast_pskip=0 / chroma_qp_offset=-2 / threads=12 / lookahead_threads=3 / sliced_threads=0 / nr=0 / decimate=0 / interlaced=0 / bluray_compat=0 / constrained_intra=0 / bframes=16 / b_pyramid=2 / b_adapt=2 / b_bias=0 / direct=3 / weightb=1 / open_gop=0 / weightp=2 / keyint=240 / keyint_min=23 / scenecut=40 / intra_refresh=0 / rc_lookahead=40 / rc=2pass / mbtree=0 / bitrate=11500 / ratetol=1.0 / qcomp=0.60 / qpmin=0 / qpmax=35 / qpstep=4 / cplxblur=20.0 / qblur=0.5 / vbv_maxrate=50000 / vbv_bufsize=62500 / nal_hrd=none / filler=0 / ip_ratio=1.40 / pb_ratio=1.30 / aq=2:1.00
Language : English
Default : Yes
Forced : No
Color range : Limited
Color primaries : BT.709
Transfer characteristics : BT.709
Matrix coefficients : BT.709

Audio #1
ID : 2
Format : AC-3
Format/Info : Audio Coding 3
Commercial name : Dolby Digital
Codec ID : A_AC3
Duration : 1 h 50 min
Bit rate mode : Constant
Bit rate : 192 kb/s
Channel(s) : 2 channels
Channel layout : L R
Sampling rate : 48.0 kHz
Frame rate : 31.250 FPS (1536 SPF)
Bit depth : 16 bits
Compression mode : Lossy
Stream size : 152 MiB (2%)
Title : VO VHS Видеосервис
Language : Russian
Service kind : Complete Main
Default : Yes
Forced : Yes

Audio #2
ID : 3
Format : AC-3
Format/Info : Audio Coding 3
Commercial name : Dolby Digital
Codec ID : A_AC3
Duration : 1 h 50 min
Bit rate mode : Constant
Bit rate : 448 kb/s
Channel(s) : 6 channels
Channel layout : L R C LFE Ls Rs
Sampling rate : 48.0 kHz
Frame rate : 31.250 FPS (1536 SPF)
Bit depth : 16 bits
Compression mode : Lossy
Stream size : 356 MiB (4%)
Title : Original
Language : French
Service kind : Complete Main
Default : No
Forced : No

Text #1
ID : 4
Format : UTF-8
Codec ID : S_TEXT/UTF8
Codec ID/Info : UTF-8 Plain Text
Duration : 1 h 47 min
Bit rate : 74 b/s
Count of elements : 1544
Stream size : 58.6 KiB (0%)
Language : English
Default : No
Forced : No

Text #2
ID : 5
Format : UTF-8
Codec ID : S_TEXT/UTF8
Codec ID/Info : UTF-8 Plain Text
Duration : 1 h 48 min
Bit rate : 68 b/s
Count of elements : 1512
Stream size : 54.0 KiB (0%)
Language : French
Default : No
Forced : No

Menu
00:00:00.000 : en:Chapter 01
00:09:55.762 : en:Chapter 02
00:20:53.043 : en:Chapter 03
00:28:09.313 : en:Chapter 04
00:39:32.161 : en:Chapter 05
00:45:55.711 : en:Chapter 06
00:52:43.452 : en:Chapter 07
00:56:40.689 : en:Chapter 08
01:08:40.408 : en:Chapter 09
01:20:36.498 : en:Chapter 10
01:27:11.977 : en:Chapter 11
01:36:46.175 : en:Chapter 12
Рип с My Father's Glory 1990 1080p Blu-ray AVC DTS-HD MA 5.1 || 4K Remaster || Gaumont

Рип и сборка - GoldDust
freegat.top



Скачать Слава моего отца через торрент https://funkyimg.com/i/2VsgR.jpg Скачать фильм Слава моего отца через торрент бесплантно в хорошем качестве Описание: Экранизация автобиографического романа известного французского писателя Марселя Паньоля, первая часть дилогии. С теплотой, ... 5 10 1
Торрент: Зарегистрирован [2019-07-13 17:28] · скачан: 4 раз
Статус: √ проверено
Размер: 9.41 GB
Как cкачать? Как скачать Слава моего отца через торрент | qTorrent


>> Регистрируемся здесь <<






Отзывы и комментарии о схеме читаем и пишем здесь: ---> Отзывы и комментарии о схеме

Новые благодарочки в телеграм довольных пользователей:
скриншот   скриншот   скриншот   скриншот   скриншот
    Дорогой пользователь! Огромная просьба, поблагодарите релизера, оцените раздачу и оставьте свои комментарий, если Вы скачали Слава моего отца через торрент бесплатно! Внесите свою лепту в развитие PiratBit!
    Комментировать посты могут только пользователи прошедшие не сложную регистрацию
    Показать сообщения:    

    Слава моего отца через торрент
    Скачать бесплатно Слава моего отца
    Слава моего отца скачать торрент
    Слава моего отца смотреть онлайн
    Cкачать фильм Слава моего отца бесплатно
    Слава моего отца скачать торрент в хорошем качестве
    Слава моего отца смотреть онлайн бесплатно в хорошем качестве


    Вы не можете начинать темы
    Вы не можете отвечать на сообщения
    Вы не можете редактировать свои сообщения
    Вы не можете удалять свои сообщения
    Вы не можете голосовать в опросах
    Вы не можете прикреплять файлы к сообщениям
    Вы можете скачивать файлы