MEGA SALE -50% FORZA HORIZON 4 ULTIMATE+ВСЕ DLC+ОНЛАЙН всего за 599р. 299 руб. (супер цена). Внимание количество ограничено!!!

iTunes

1+1

iTunes

мы

iTunes

1

iTunes

Чернобыль

iTunes

Ральф против интернета

Лицензия

ПШазам

Лицензия

Игра престолов

Лицензия

30
pack

ВАЖНО

!!Акция!!

Alien_RageХит недели

RePack

Resident Evil 21

ИГРА 18+

pack

RePack

Metro:Exodus

!!Акция!!

Alien_Rage

RePack

fifa19

RePack

Assassins Creed: Odyssey

RePack

NEED FOR SPEED™ PAYBACK

3 сезон

9 сезон

Бесстыжие 9 сезон

Все сериалы

все сериалы на PB.wtf

RePack

FAR CRY 5
Ребята, катастрофически не хватает 7730р. для оплаты серверов за АВГУСТ (всвязи с блокировками трафик упал в 3 раза), 1-2р., выручайте.
  

Пандора / Pandora / Сезон: 1 / Серии: 1-10 из 13 (Стивен Хьюз, Бретт Симмонс, Кристиан Госсетт) [2019, фантастика, боевик, драма, WEBRip 720p] DVO [Kerob] freegat.top

Пандора через торрент freegat.top

Качают: 1 [ 0 KB/s ]
Размер: 9.77 GB | Добавлен: 9 ч. назад | Торрент скачан:1 раз
Скачать  

17-07-2019 10:07 Пандора Скачать торрент  

Пандора / Pandora
Год выпуска: 2019
Страна: США
Жанр: фантастика, боевик, драма
Продолжительность: ~ 00:45:00
Перевод: Любительский (двухголосый) | Kerob
Субтитры: отсутствуют

Режиссер: Стивен Хьюз, Бретт Симмонс, Кристиан Госсетт

rating


В ролях: Присцилла Квинтана, Мартин Бобб-Семпл, Ной Хантли, Темина Санни, Бен Рэдклифф, Викаш Бхай, Ти Джэй Дженкенс, Венцислав Ковачев, Карина Банно, Рашель Банно

Описание: 2199-й год. Потерявшая всё Джакс начинает новую жизнь в космической академии, где вместе с друзьями учится защищать планету от человеческих и инопланетных угроз. Однако правда о прошлом девушки может как спасти Вселенную, так и уничтожить её.

Качество: WEBRip 720p
Формат: MKV

Видео: 1280x720, ~ 3000 Кбит/сек, 23,976 fps
Аудио: Русский (AC3, 2 ch, 192 Кбит/с)
скриншот  скриншот  скриншот  скриншот  

Общее
Уникальный идентификатор : 205293061516145431974693751999313929109 (0x9A7201657DD3921E984033DC482AE395)
Полное имя : D:\Pandora.S01.720p.Kerob\Pandora.S01E01.720p.Kerob.mkv
Формат : Matroska
Версия формата : Version 2
Размер файла : 962 Мбайт
Продолжительность : 42 м. 33 с.
Общий поток : 3160 Кбит/сек
Дата кодирования : UTC 2019-07-17 08:58:01
Программа кодирования : mkvmerge v3.3.0 ('Language') built on Mar 24 2010 14:59:24
Библиотека кодирования : libebml v0.8.0 + libmatroska v0.9.0

Видео
Идентификатор : 1
Формат : AVC
Формат/Информация : Advanced Video Codec
Профиль формата : Main@L3.1
Параметр CABAC формата : Да
Параметр RefFrames формата : 1 кадр
Параметр GOP формата : N=1
Идентификатор кодека : V_MPEG4/ISO/AVC
Продолжительность : 42 м. 33 с.
Битрейт : 3000 Кбит/сек
Ширина : 1280 пикселей
Высота : 720 пикселей
Соотношение сторон : 16:9
Режим частоты кадров : Постоянный
Частота кадров : 23,976 (24000/1001) кадра/сек
Цветовое пространство : YUV
Субдискретизация насыщенности : 4:2:0
Битовая глубина : 8 бит
Тип развёртки : Прогрессивная
Бит/(Пиксели*Кадры) : 0.136
Размер потока : 884 Мбайт (92%)
Библиотека кодирования : x264 core 129
Настройки программы : cabac=1 / ref=1 / deblock=1:0:0 / analyse=0x1:0x131 / me=dia / subme=2 / psy=1 / psy_rd=1.00:0.00 / mixed_ref=0 / me_range=16 / chroma_me=1 / trellis=0 / 8x8dct=0 / cqm=0 / deadzone=21,11 / fast_pskip=1 / chroma_qp_offset=0 / threads=4 / lookahead_threads=1 / sliced_threads=0 / nr=0 / decimate=1 / interlaced=0 / bluray_compat=0 / constrained_intra=0 / bframes=0 / weightp=2 / keyint=250 / keyint_min=25 / scenecut=40 / intra_refresh=0 / rc_lookahead=40 / rc=abr / mbtree=1 / bitrate=3000 / ratetol=1.0 / qcomp=0.60 / qpmin=10 / qpmax=51 / qpstep=4 / ip_ratio=1.41 / aq=1:1.00
Default : Нет
Forced : Нет

Аудио
Идентификатор : 2
Формат : AC-3
Формат/Информация : Audio Coding 3
Расширение режима : CM (complete main)
Параметр Endianness формата : Big
Идентификатор кодека : A_AC3
Продолжительность : 42 м. 33 с.
Вид битрейта : Постоянный
Битрейт : 192 Кбит/сек
Каналы : 2 канала
Расположение каналов : Front: L R
Частота : 48,0 КГц
Частота кадров : 31,250 кадров/сек (1536 spf)
Метод сжатия : С потерями
Размер потока : 58,5 Мбайт (6%)
Default : Да
Forced : Нет

Когда раздача ведётся путём добавления новых серий, при каждом добавлении создётся новый торрент. Чтобы начать докачку новой серии, пользователям необходимо сделать следующее:
(1) остановить скачивание,
(2) удалить старый торрент у себя из клиента (старые серии удалять не надо),
(3) скачать новый торрент и запустить его у себя в клиенте вместо старого, при этом указать клиенту путь в старую папку, куда и должно происходить скачивание новых серий.
Ваш клиент при этом должен произвести хеширование (проверку) старой папки (если не производит сам - помогите ему сделать это), и будет докачивать только те серии, которых у вас ещё нет. Старые серии при этом не удаляются, а продолжают раздаваться!
Eсли вы уже удалили старые серии, то предотвратить повторную закачку старых серий можно, отжав галочку в соответсвующих местах при запуске нового торрента. По возможности, желательно не удалять старые серии как можно дольше, чтобы релизёр не столько продолжал раздавать старые серии, а смог сконцентрироваться на новых.
freegat.top



Скачать Пандора через торрент https://a.radikal.ru/a02/1907/67/80c145080a6d.jpg Скачать фильм Пандора через торрент бесплантно в хорошем качестве Описание: 2199-й год. Потерявшая всё Джакс начинает новую жизнь в космической академии, где вместе с друзьями учится защищать планету от ... 9.2 10 11
Торрент: Зарегистрирован [2019-09-18 09:21] · скачан: 1 раз
Статус: T временная
Размер: 9.77 GB
Как cкачать? Как скачать Пандора через торрент | qTorrent

% Раздел Тема Автор DL S | L
Зарубежные сериалы [ 26.92 GB ] Пандора / Pandora / Сезон: 1 / Серии: 1-9 из 13 [2019 WEB-DL 1080p] MVO [Lostfilm] bober100 Скачать
3 | 1
Зарубежные сериалы [ 20.07 GB ] Пандора / Pandora / Сезон: 1 / Серии: 1-7 из 13 [2019 WEB-DL 1080p] MVO [HDRezka Studio] bober100 Скачать
2 | 0
Зарубежные сериалы [ 24.8 GB ] Пандора / Pandora / Сезон: 1 / Серии: 1-9 из 13 [2019 WEB-DL 1080p] MVO [TVShows] bober100 Скачать
1 | 0
T Зарубежные сериалы [ 3.96 GB ] Пандора / Pandora / Сезон: 1 / Серии: 1-10 из 13 [2019 WEBRip] DVO [Kerob] bober100 Скачать
2 | 2
T Зарубежные сериалы [ 15.78 GB ] Пандора / Pandora / Сезон: 1 / Серии: 1-8 из 13 [2019 WEBRip 1080p] MVO [Octopus] bober100 Скачать
1 | 0


Последний раз редактировалось: bober100 (2019-09-18 09:21), всего редактировалось 1 раз


>> Регистрируемся здесь <<






Отзывы и комментарии о схеме читаем и пишем здесь: ---> Отзывы и комментарии о схеме

Новые благодарочки в телеграм довольных пользователей:
скриншот   скриншот   скриншот   скриншот   скриншот

12-09-2019 06:25 Пандора Скачать торрент  

Сериальчик мягко говоря ни о чем. Весь смысл и действие в разговорах, меняется только антураж! Действия-0.5% Тупизм персонажей просто зашкаливает. Вообщем весь сериал - без смысленные разговоры, сидя то тут, то там... На любителя...freegat.top



    Дорогой пользователь! Огромная просьба, поблагодарите релизера, оцените раздачу и оставьте свои комментарий, если Вы скачали Пандора через торрент бесплатно! Внесите свою лепту в развитие PiratBit!
    Комментировать посты могут только пользователи прошедшие не сложную регистрацию
    Показать сообщения:    

    Пандора через торрент
    Скачать бесплатно Пандора
    Пандора скачать торрент
    Пандора смотреть онлайн
    Cкачать фильм Пандора бесплатно
    Пандора скачать торрент в хорошем качестве
    Пандора смотреть онлайн бесплатно в хорошем качестве


    Вы не можете начинать темы
    Вы не можете отвечать на сообщения
    Вы не можете редактировать свои сообщения
    Вы не можете удалять свои сообщения
    Вы не можете голосовать в опросах
    Вы не можете прикреплять файлы к сообщениям
    Вы можете скачивать файлы