MEGA SALE -50% FORZA HORIZON 4 ULTIMATE+ВСЕ DLC+ОНЛАЙН всего за 599р. 299 руб. (супер цена). Внимание количество ограничено!!!

iTunes

1+1

iTunes

мы

iTunes

1

iTunes

Чернобыль

1 сезон

Ральф против интернета

Лицензия

ПШазам

Лицензия

Игра престолов

Лицензия

30
pack

ВАЖНО

!!Акция!!

Alien_RageХит недели

RePack

Resident Evil 21

ИГРА 18+

pack

RePack

Metro:Exodus

!!Акция!!

Alien_Rage

RePack

fifa19

RePack

Assassins Creed: Odyssey

RePack

NEED FOR SPEED™ PAYBACK

3 сезон

9 сезон

Бесстыжие 9 сезон

Все сериалы

все сериалы на PB.wtf

RePack

FAR CRY 5
Ребята, катастрофически не хватает 7730р. для оплаты серверов за ИЮЛЬ (всвязи с блокировками трафик упал в 3 раза), 1-2р., выручайте.
  

Экспроприатор / Сезон: 1 / Серии: 1-16 из 16 (Владимир Краснопольский) [2019, Криминал, детектив, HDTVRip] freegat.top

Экспроприатор через торрент freegat.top

Раздают: 18 [ 3 MB/s ] Качают: 7 [ 368 KB/s ]
Размер: 9.82 GB | Добавлен: 5 д. назад | Торрент скачан:70 раз
Скачать  

06-08-2019 06:00 Экспроприатор Скачать торрент  

Экспроприатор
Год выпуска: 2019
Страна: Россия
Жанр: Криминал, детектив
Продолжительность: ~ 00:51:00
Перевод: Не требуется
Субтитры: отсутствуют

Режиссер: Владимир Краснопольский



В ролях: Артём Ткаченко, Артемий Шаффер, Павел Меленчук, Анна Табанина, Алексей Фатеев, Евгений Князев, Юрий Беляев, Татьяна Абрамова, Анна Миклош, Игорь Филиппов, Алексей Шевченков, Павел Адамчиков, Сергей Русскин, Наталья Круглова, Соня Кравчук, Михаил Богдасаров, Егор Бакулин, Татьяна Чердынцева, Рамис Ибрагимов, Константин Глушков, Игорь Денисов, Евгения Любимова, Кирилл Продолятченко, Аркадий Коваль, Дмитрий Сутырин, Владимир Богданов, Андрей Мокеев, Ольга Онищенко, Игорь Головин, Пётр Логачёв, Василий Щипицын, Михаил Касапов, Александр Демич (II), Олег Сенченко, Сергей Гамов, Светлана Селезнёва, Николай Иванов, Сергей Жукович, Вячеслав Павлють, Дмитрий Быковский-Ромашов, Олег Ткачёв, Сергей Власов (II)

Описание: По романам Андрея Константинова из цикла "Юность Барона". Предыстория телевизионного сериала "Бандитский Петербург". 1962 год. Молодой и удачливый вор Юрка-Барон, провернув очередную квартирную кражу, едет из Ленинграда в Москву, чтобы встретить с человеком из своего далёкого и страшного прошлого. В поезде он вспоминает свою жизнь, которая наверняка сложилась бы по-другому – если б не война, не репрессии и не родство матери с персональным шофёром Ленина, имевшим неосторожность написать крамольную рукопись...

Качество: HDTVRip
Формат: AVI

Видео: XviD, ~ 1600 Кбит/с, 720х400, 25 кадр/с
Аудио: Русский (AC3, 2 ch, 192 Кбит/с)
скриншот  скриншот  скриншот  скриншот  

Общее
Полное имя : D:Jekspropriator.HDTVRip.GeneralFilm1.Jekspropriator.HDTVRip.GeneralFilm.avi
Формат : AVI
Формат/Информация : Audio Video Interleave
Размер файла : 645 Мбайт
Продолжительность : 50 м. 24 с.
Общий поток : 1789 Кбит/сек
Программа кодирования : VirtualDubMod 1.5.10.3 | www.virtualdub-fr.org || (build 2550/release)
Библиотека кодирования : VirtualDubMod build 2550/release

Видео
Идентификатор : 0
Формат : MPEG-4 Visual
Профиль формата : Advanced Simple@L5
Параметр BVOP формата : 1
Параметр QPel формата : Нет
Параметр GMC формата : Без точки перехода
Параметр матрицы формата : Выборочная
Идентификатор кодека : XVID
Идентификатор кодека/Подсказка : XviD
Продолжительность : 50 м. 24 с.
Битрейт : 1587 Кбит/сек
Ширина : 720 пикселей
Высота : 400 пикселей
Соотношение сторон : 16:9
Частота кадров : 25,000 кадров/сек
Цветовое пространство : YUV
Субдискретизация насыщенности : 4:2:0
Битовая глубина : 8 бит
Тип развёртки : Прогрессивная
Метод сжатия : С потерями
Бит/(Пиксели*Кадры) : 0.220
Размер потока : 572 Мбайт (89%)
Библиотека кодирования : XviD 1.2.1 (UTC 2008-12-04)

Аудио
Идентификатор : 1
Формат : AC-3
Формат/Информация : Audio Coding 3
Расширение режима : CM (complete main)
Параметр Endianness формата : Big
Идентификатор кодека : 2000
Продолжительность : 50 м. 24 с.
Вид битрейта : Постоянный
Битрейт : 192 Кбит/сек
Каналы : 2 канала
Расположение каналов : Front: L R
Частота : 48,0 КГц
Частота кадров : 31,250 кадров/сек (1536 spf)
Битовая глубина : 16 бит
Метод сжатия : С потерями
Размер потока : 69,2 Мбайт (11%)
Выравнивание : Разделение по промежуткам
Продолжительность промежутка : 40 мс. (1,00 видеокадр)
Время предзагрузки промежутка : 500 мс.

Внимание! Раздача ведётся путём добавления новых серий; при каждом добавлении создаётся новый торрент.
Чтобы начать докачку новой серии, пользователям необходимо сделать следующее:
1. Остановить скачивание;
2. Удалить старый торрент у себя из клиента (старые серии удалять не надо);
3. Скачать новый торрент и запустить его у себя в клиенте вместо старого, при этом указать клиенту путь в старую папку куда и должно происходить скачивание новых серий. Ваш клиент при этом должен произвести хеширование (проверку) старой папки и будет докачивать только те серии, которых у вас ещё нет. Старые серии при этом не удаляются, а продолжают раздаваться! Eсли вы уже удалили старые серии, то предотвратить повторную закачку старых серий можно, отжав галочку в соответствующих местах при запуске нового торрента.
freegat.top



Скачать Экспроприатор через торрент http://img16.lostpic.net/2019/08/05/74d853edfea01b95d97eb28bb727edd0.jpg Скачать фильм Экспроприатор через торрент бесплантно в хорошем качестве Описание: По романам Андрея Константинова из цикла "Юность Барона". Предыстория телевизионного сериала "Бандитский Петербург". 1962 год. ... 9.3 10 9
Info! Золотая раздача, скачанное не засчитывается.
Торрент: Зарегистрирован [2019-08-15 18:23] · скачан: 70 раз
Статус: √ проверено
Размер: 9.82 GB
Как cкачать? Как скачать Экспроприатор через торрент | qTorrent

% Раздел Тема Автор DL S | L
Наши сериалы [ 12.06 GB ] Экспроприатор / Сезон: 1 / Серии: 1-16 из 16 [2019 HDTVRip-AVC] bober100 Скачать
10 | 2
Наши сериалы [ 20.31 GB ] Экспроприатор / Сезон: 1 / Серии: 1-16 из 16 [2019 HDTVRip 720p] bober100 Скачать
9 | 3
Наши сериалы [ 37.71 GB ] Экспроприатор / Сезон: 1 / Серии: 1-16 из 16 [2019 HDTV 1080i] bober100 Скачать
6 | 4
Наши сериалы [ 10.18 GB ] Экспроприатор / Сезон: 1 / Серии: 1-16 из 16 [2019 SATRip] bober100 Скачать
15 | 5


>> Регистрируемся здесь <<






Отзывы и комментарии о схеме читаем и пишем здесь: ---> Отзывы и комментарии о схеме

Новые благодарочки в телеграм довольных пользователей:
скриншот   скриншот   скриншот   скриншот   скриншот
    Дорогой пользователь! Огромная просьба, поблагодарите релизера, оцените раздачу и оставьте свои комментарий, если Вы скачали Экспроприатор через торрент бесплатно! Внесите свою лепту в развитие PiratBit!
    Комментировать посты могут только пользователи прошедшие не сложную регистрацию
    Показать сообщения:    

    Экспроприатор через торрент
    Скачать бесплатно Экспроприатор
    Экспроприатор скачать торрент
    Экспроприатор смотреть онлайн
    Cкачать фильм Экспроприатор бесплатно
    Экспроприатор скачать торрент в хорошем качестве
    Экспроприатор смотреть онлайн бесплатно в хорошем качестве


    Вы не можете начинать темы
    Вы не можете отвечать на сообщения
    Вы не можете редактировать свои сообщения
    Вы не можете удалять свои сообщения
    Вы не можете голосовать в опросах
    Вы не можете прикреплять файлы к сообщениям
    Вы можете скачивать файлы