новый адрес
Ссылка на приватное зеркало всего за 1$. Внимание количество ограничено!!!

iTunes

1+1

iTunes

мы

WEB-DL

1

iTunes

Чернобыль

iTunes

Ральф против интернета

Лицензия

ПШазам

Лицензия

Оно 2

Лицензия

30
pack

Вам бонус

ВАЖНО

!!Акция!!

Alien_RageХит недели

RePack

Resident Evil 21

ИГРА 18+

pack

RePack

jed

!!Акция!!

Alien_Rage

RePack

fifa19

RePack

Assassins Creed: Odyssey

RePack

NEED FOR SPEED™ PAYBACK

3 сезон

9 сезон

Бесстыжие 9 сезон

Все сериалы

все сериалы на PB.wtf

RePack

FAR CRY 5
Ребята, катастрофически не хватает 1900р. для оплаты серверов за Октябрь (всвязи с блокировками трафик упал в 3 раза), 1-2р., выручайте.
  

Профиль убийцы / Сезон: 1-2 / Серии: 1-40 из 40 (Владимир Койфман) [2012-2015, детектив, WEBRip-AVC] freegat.top

Профиль убийцы через торрент freegat.top

Размер: 23.23 GB | Добавлен: 3 мес. 25 д. назад | Торрент скачан:17 раз
Скачать  

10-08-2019 13:41 Профиль убийцы Скачать торрент  

Профиль убийцы Год выпуска: 2012-2015
Производство: Россия, "Центр кинопроизводства" по заказу ООО «Форвард-Фильм»
Жанр: детектив
Продолжительность: 40 x ~ 00:45:0
Субтитры: Нет

Режиссёр: Владимир Койфман

В ролях: Максим Щёголев, Вадим Андреев, Денис Матросов, Сергей Пиоро, Ольга Куликова, Евгений Гусев, Максим Глотов, Роман Индык, Ричард Бондарев, Игорь Самойлов, Дмитрий Буренков, Лариса Негреева-Цесляк, Ксения Суркова, Маргарита Шилова, Константин Фролов, Сергей Колешня, Юлия Рувинская, Тимофей Смирнов, Николай Сердцев, Сергей Холмогоров, Антон Афанасьев, Дмитрий Грачёв (II), Наталья Пикула, Ольга Куликова (II), Игорь Арташонов, Дмитрий Блохин, Руслан Ягудин, Елена Глазкова, Николай Бендера, Александра Панкратова, Денис Юченков, Вячеслав Шихалеев, Владимир Яковлев (II), Сергей Васильев (VI), Василий Белокопытов, Олег Леушин, Святослав Насташевский, Анатолий Гуков, Сергей Усков, Олег Осипов (II), Игорь Чигасов, Владимир Терещенко, Ольга Молочная, Андрей Вальц, Олег Жуков, Сергей Кагаков, Веста Буркот, Наталья Лукеичева, Константин Похмелов, Наталья Унгард, Олег Каменщиков, Артём Кобзев, Надежда Подъяпольская, Илья Семёнов, Андрей Зайцев (III), Владимир Кошеваров, Евгений Косырев, Анастасия Сапожникова, Евгений Воловенко, Екатерина Линцевич, Сергей Коваленко, Андрей Негривода, Константин Глушков, Антон Фигуровский, Валентин Самохин, Илья Кремнёв, Сесиль Свердлова, Елена Лотова, Николай Денисов, Ольга Яблонская, Александр Стефанцов

Описание:
Профиль убийцы: Герои сериала - это сотрудники недавно созданного подразделения в составе МВД. Это отдел, изучающий поведение серийных убийц и насильников. Таких сотрудников называют профайлерами. Они анализируют поведение убийц, входя в их образ, проникая в их сознание. Огромное количество преступлений, совершенных по сексуальному мотиву, до сих пор оставались нераскрытыми. И только с появлением нашего отдела, казалось бы, дела, считавшиеся "висяками", должны были начать раскрываться. Но в российской полиции, как известно, царит консервативная атмосфера, опера привыкли работать по старинке, и нашим героям предстоит столкнуться с неприятием внутри УВД со стороны коллег. И преодолев сопротивление среди своих, им предстоит вычислить и изловить целую череду разномастных серийных убийц, психопатов и маньяков.
Профиль убийцы-2: Во втором сезоне сериала «Профиль убийцы» зрители вновь встретятся с уже знакомыми им профайлерами – сотрудниками особого отдела, занимающегося раскрытием серийных убийств и изнасилований по всей России. Полковники Удальцов (Денис Матросов), Петров (Вадим Андреев), подполковник Круглов (Максим Щеголев) и капитан Субботина (Ольга Куликова) – ребята с железными нервами и острым умом. Они анализируют поведение маньяков, входя в их образ, проникая в их сознание. В новом сезоне отдел профайлеров значительно поредел – на пенсию отправили полковника Петрова. Но работы так много, что Петров постоянно помогает коллегам в качестве эксперта и научного консультанта. В разработку группы попадает маньяк провозгласивший себя Миссионером, он истребляет всех заблудших и сбившихся с правильного пути людей - бродяг, проституток. Этот контингент не побежит жаловаться в полицию, что их кто-то преследует. До них никому нет дела… Профайлерам удастся раскрыть преступление двадцатилетней давности, и даже спасти от неминуемого суда своего руководителя - генерала Губанова. Но герои сериала не только опытные сыщики с изощренным умом. Они такие же люди, как и все, и им тоже, подчас, не хватает простых человеческих радостей и положительных эмоций. Возможно, что им они нужны даже больше чем обычным людям. Удальцов встретит свою первую любовь, и пожар любви вспыхнет с новой силой. Круглов и Субботина неоднократно пытаются назначить день свадьбы, но каждый раз очередное дело отрывает их от счастливого дня. Это становится серьезной проблемой для пары. Но перспектив к облегчению работы, увы, никаких. Дела становиться все запутанней и страшней. Каждое новое дело - это новая жуткая трагедия, и чем быстрее профайлеры составят «профиль убийцы», тем больше жизней им удастся уберечь.

Реклама: Нет

Сэмпл: http://multi-up.com/1236637, http://multi-up.com/1236638

rating

Качество: WEBRip-AVC
Формат: MKV
Видео кодек: H.264
Аудио кодек: AC3

Видео: MPEG-4 (AVC), 720x400, 25 fps, ~ 1600 kbps, ~ 0.22 bit/pixel
Аудио: AC3, 2 ch, 192 kbps, 48.0 kHz
General
Unique ID : 214416142535713076941087759205170563578 (0xA14F0C04B72C6F839C1292525D0A49FA)
Complete name : Профиль убийцы (01 сер.).mkv
Format : Matroska
Format version : Version 2
File size : 595 MiB
Duration : 46 min 21 s
Overall bit rate : 1 793 kb/s
Encoded date : UTC 2019-06-30 15:22:03
Writing application : mkvmerge v7.8.0 ('River Man') 32bit built on Apr 3 2015 12:11:22
Writing library : libebml v1.3.1 + libmatroska v1.4.2

Video
ID : 1
Format : AVC
Format/Info : Advanced Video Codec
Format profile : High@L3
Format settings : CABAC / 6 Ref Frames
Format settings, CABAC : Yes
Format settings, Reference : 6 frames
Codec ID : V_MPEG4/ISO/AVC
Duration : 46 min 21 s
Bit rate : 1 600 kb/s
Width : 720 pixels
Height : 400 pixels
Display aspect ratio : 16:9
Frame rate mode : Constant
Frame rate : 25.000 FPS
Color space : YUV
Chroma subsampling : 4:2:0
Bit depth : 8 bits
Scan type : Progressive
Bits/(Pixel*Frame) : 0.222
Stream size : 519 MiB (87%)
Writing library : x264 core 157 r2935 545de2f
Encoding settings : cabac=1 / ref=6 / deblock=1:0:0 / analyse=0x3:0x113 / me=umh / subme=8 / psy=1 / psy_rd=1.00:0.00 / mixed_ref=1 / me_range=24 / chroma_me=1 / trellis=1 / 8x8dct=1 / cqm=0 / deadzone=21,11 / fast_pskip=1 / chroma_qp_offset=-2 / threads=4 / lookahead_threads=4 / sliced_threads=0 / nr=0 / decimate=1 / interlaced=0 / bluray_compat=0 / stitchable=1 / constrained_intra=0 / bframes=6 / b_pyramid=2 / b_adapt=1 / b_bias=0 / direct=3 / weightb=1 / open_gop=0 / weightp=2 / keyint=250 / keyint_min=25 / scenecut=40 / intra_refresh=0 / rc_lookahead=40 / rc=2pass / mbtree=1 / bitrate=1600 / ratetol=1.0 / qcomp=0.60 / qpmin=0 / qpmax=69 / qpstep=4 / cplxblur=20.0 / qblur=0.5 / ip_ratio=1.40 / aq=1:1.00
Default : Yes
Forced : No

Audio
ID : 2
Format : AC-3
Format/Info : Audio Coding 3
Commercial name : Dolby Digital
Codec ID : A_AC3
Duration : 46 min 21 s
Bit rate mode : Constant
Bit rate : 192 kb/s
Channel(s) : 2 channels
Channel layout : L R
Sampling rate : 48.0 kHz
Frame rate : 31.250 FPS (1536 SPF)
Bit depth : 16 bits
Compression mode : Lossy
Stream size : 63.7 MiB (11%)
Service kind : Complete Main
Default : Yes
Forced : No
freegat.top



Скачать Профиль убийцы через торрент http://i41.fastpic.ru/big/2012/0711/17/8780be50c7bcf2fbbe76854635af5617.jpg Скачать фильм Профиль убийцы через торрент бесплантно в хорошем качестве Описание:Профиль убийцы: Герои сериала - это сотрудники недавно созданного подразделения в составе МВД. Это отдел, изучающий поведение ... 10 10 2
Торрент: Зарегистрирован [2019-08-14 03:07] · скачан: 17 раз
Статус: √ проверено
Размер: 23.23 GB
Как cкачать? Как скачать Профиль убийцы через торрент | qTorrent

28-11-2019 20:33  

Отключить всю рекламу на сайте

    Дорогой пользователь! Огромная просьба, поблагодарите релизера, оцените раздачу и оставьте свои комментарий, если Вы скачали Профиль убийцы через торрент бесплатно! Внесите свою лепту в развитие PiratBit!
    Комментировать посты могут только пользователи прошедшие не сложную регистрацию
    Показать сообщения:    

    Профиль убийцы через торрент
    Скачать бесплатно Профиль убийцы
    Профиль убийцы скачать торрент
    Профиль убийцы смотреть онлайн
    Cкачать фильм Профиль убийцы бесплатно
    Профиль убийцы скачать торрент в хорошем качестве
    Профиль убийцы смотреть онлайн бесплатно в хорошем качестве


    Вы не можете начинать темы
    Вы не можете отвечать на сообщения
    Вы не можете редактировать свои сообщения
    Вы не можете удалять свои сообщения
    Вы не можете голосовать в опросах
    Вы не можете прикреплять файлы к сообщениям
    Вы можете скачивать файлы