MEGA SALE -50% FORZA HORIZON 4 ULTIMATE+ВСЕ DLC+ОНЛАЙН всего за 599р. 299 руб. (супер цена). Внимание количество ограничено!!!

iTunes

1+1

iTunes

мы

iTunes

1

iTunes

Чернобыль

iTunes

Ральф против интернета

Лицензия

ПШазам

Лицензия

Игра престолов

Лицензия

30
pack

ВАЖНО

!!Акция!!

Alien_RageХит недели

RePack

Resident Evil 21

ИГРА 18+

pack

RePack

Metro:Exodus

!!Акция!!

Alien_Rage

RePack

fifa19

RePack

Assassins Creed: Odyssey

RePack

NEED FOR SPEED™ PAYBACK

3 сезон

9 сезон

Бесстыжие 9 сезон

Все сериалы

все сериалы на PB.wtf

RePack

FAR CRY 5
Ребята, катастрофически не хватает 7730р. для оплаты серверов за ИЮЛЬ (всвязи с блокировками трафик упал в 3 раза), 1-2р., выручайте.
  

Дикая Роза / Wild Rose (Том Харпер) [2018, Драма, музыка, WEB-DL 1080p] MVO [HDRezka Studio] freegat.top

Дикая Роза через торрент freegat.top

Раздают: 3 [ 0 KB/s ]
Размер: 3.6 GB | Добавлен: 11 д. назад | Торрент скачан:19 раз
Скачать  

13-08-2019 23:29 Дикая Роза Скачать торрент  

Дикая Роза / Wild Rose
Год выпуска: 2018
Страна: Великобритания
Жанр: Драма, музыка
Продолжительность: 01:40:33
Перевод: Профессиональный (многоголосый) | HDRezka Studio
Субтитры: Русские (Forced), английские

Режиссер: Том Харпер

rating

В ролях: Джесси Бакли, Мэтт Костильо, Jane Patterson, Лесли Харт, Кэрол Пайпер Рафферти, Natalie Mcconnon, Maureen Carr, Джеймс Харкнесс, Джули Уолтерс, Адам Митчелл

Описание: Только что вышедшая из тюрьмы шотландка Роуз-Линн Харлан мечтает уехать в Америку и стать звездой кантри. Однако перед тем как пуститься в дальнее странствие, Роуз-Линн необходимо навестить свою мать Марион, которая присматривала за ее детьми, пока девушка отбывала наказание за хранение наркотиков. Пожилой женщине трудно смириться с проделками дочери, но она не может повлиять на ее поведение, хотя и пытается. Когда Роуз-Линн отказывают на прежнем месте работы, Марион устраивает ее уборщицей в богатый дом, искренне веря в то, что нормальная работа поможет дочери остепениться и стать настоящей матерью для своих детей, вот только девушка грезит лишь музыкой и славой.

Качество: WEB-DL 1080p
Формат: MKV

Видео: MPEG-4 AVC Video, 1920x802 (2.40:1), 4551 Kbps, 23.976 fps
Аудио#1: Russian (AAC, 2 ch, 185 kbps, 16 bits, 48.0 KHz) - HDRezka Studio
Аудио#2: English (AC3, 6 ch, 384 kbps, 16 bits, 48.0 KHz) - Оригинал
скриншот  скриншот  скриншот  скриншот  скриншот  

General
Unique ID : 56883172167441238489336916835766247416 (0x2ACB4CEB016F60EA02B3D8AA22761FF8)
Complete name : G:Wild.Rose.2018.WEB-DL.1080p.mkv
Format : Matroska
Format version : Version 4 / Version 2
File size : 3.60 GiB
Duration : 1 h 40 min
Overall bit rate : 5 123 kb/s
Encoded date : UTC 2019-08-13 18:13:49
Writing application : mkvmerge v20.0.0 ('I Am The Sun') 64-bit
Writing library : libebml v1.3.5 + libmatroska v1.4.8

Video
ID : 1
Format : AVC
Format/Info : Advanced Video Codec
Format profile : High@L4
Format settings : CABAC / 5 Ref Frames
Format settings, CABAC : Yes
Format settings, RefFrames : 5 frames
Codec ID : V_MPEG4/ISO/AVC
Duration : 1 h 40 min
Bit rate : 4 551 kb/s
Width : 1 920 pixels
Height : 802 pixels
Display aspect ratio : 2.40:1
Frame rate mode : Constant
Frame rate : 23.976 FPS
Color space : YUV
Chroma subsampling : 4:2:0
Bit depth : 8 bits
Scan type : Progressive
Bits/(Pixel*Frame) : 0.123
Stream size : 3.20 GiB (89%)
Language : English
Default : Yes
Forced : No
Color range : Limited
Color primaries : BT.709
Transfer characteristics : BT.709
Matrix coefficients : BT.709

Audio #1
ID : 2
Format : AAC
Format/Info : Advanced Audio Codec
Format profile : LC
Codec ID : A_AAC-2
Duration : 1 h 40 min
Bit rate : 185 kb/s
Channel(s) : 2 channels
Channel positions : Front: L R
Sampling rate : 48.0 kHz
Frame rate : 46.875 FPS (1024 SPF)
Compression mode : Lossy
Stream size : 133 MiB (4%)
Title : MVO HDRezka Studio
Language : Russian
Default : Yes
Forced : No

Audio #2
ID : 3
Format : AC-3
Format/Info : Audio Coding 3
Codec ID : A_AC3
Duration : 1 h 40 min
Bit rate mode : Constant
Bit rate : 384 kb/s
Channel(s) : 6 channels
Channel positions : Front: L C R, Side: L R, LFE
Sampling rate : 48.0 kHz
Frame rate : 31.250 FPS (1536 SPF)
Bit depth : 16 bits
Compression mode : Lossy
Stream size : 276 MiB (7%)
Language : English
Service kind : Complete Main
Default : No
Forced : No

Text #1
ID : 4
Format : UTF-8
Codec ID : S_TEXT/UTF8
Codec ID/Info : UTF-8 Plain Text
Duration : 1 h 35 min
Bit rate : 12 b/s
Count of elements : 166
Stream size : 8.41 KiB (0%)
Title : forced
Language : Russian
Default : Yes
Forced : Yes

Text #2
ID : 5
Format : UTF-8
Codec ID : S_TEXT/UTF8
Codec ID/Info : UTF-8 Plain Text
Duration : 1 h 39 min
Bit rate : 60 b/s
Count of elements : 1227
Stream size : 44.6 KiB (0%)
Language : English
Default : No
Forced : No

Menu
00:00:00.000 : en:Chapter 1
00:08:32.595 : en:Chapter 2
00:17:51.654 : en:Chapter 3
00:28:17.154 : en:Chapter 4
00:36:22.847 : en:Chapter 5
00:44:59.655 : en:Chapter 6
00:54:55.500 : en:Chapter 7
01:04:20.188 : en:Chapter 8
01:14:05.106 : en:Chapter 9
01:24:57.424 : en:Chapter 10
01:36:26.945 : en:Chapter 11

freegat.top



Скачать Дикая Роза через торрент https://c.radikal.ru/c14/1908/82/cb4a58be78e3.jpg Скачать фильм Дикая Роза через торрент бесплантно в хорошем качестве Описание: Только что вышедшая из тюрьмы шотландка Роуз-Линн Харлан мечтает уехать в Америку и стать звездой кантри. Однако перед тем как ... 10 10 2
Info! Золотая раздача, скачанное не засчитывается.
Торрент: Зарегистрирован [2019-08-13 23:29] · скачан: 19 раз
Статус: T временная
Размер: 3.6 GB
Как cкачать? Как скачать Дикая Роза через торрент | qTorrent


>> Регистрируемся здесь <<






Отзывы и комментарии о схеме читаем и пишем здесь: ---> Отзывы и комментарии о схеме

Новые благодарочки в телеграм довольных пользователей:
скриншот   скриншот   скриншот   скриншот   скриншот
    Дорогой пользователь! Огромная просьба, поблагодарите релизера, оцените раздачу и оставьте свои комментарий, если Вы скачали Дикая Роза через торрент бесплатно! Внесите свою лепту в развитие PiratBit!
    Комментировать посты могут только пользователи прошедшие не сложную регистрацию
    Показать сообщения:    

    Дикая Роза через торрент
    Скачать бесплатно Дикая Роза
    Дикая Роза скачать торрент
    Дикая Роза смотреть онлайн
    Cкачать фильм Дикая Роза бесплатно
    Дикая Роза скачать торрент в хорошем качестве
    Дикая Роза смотреть онлайн бесплатно в хорошем качестве


    Вы не можете начинать темы
    Вы не можете отвечать на сообщения
    Вы не можете редактировать свои сообщения
    Вы не можете удалять свои сообщения
    Вы не можете голосовать в опросах
    Вы не можете прикреплять файлы к сообщениям
    Вы можете скачивать файлы