Мега распродажа FORZA HORIZON 4 ULTIMATE+ВСЕ DLC+ОНЛАЙН всего за 499р. 349 руб. (супер цена). Внимание количество ограничено!!!

iTunes

1+1

iTunes

мы

iTunes

1

iTunes

Чернобыль

1 сезон

Ральф против интернета

Лицензия

ПШазам

Лицензия

Игра престолов

Лицензия

30
pack

ВАЖНО

!!Акция!!

Alien_RageХит недели

RePack

Resident Evil 21

ИГРА 18+

pack

RePack

Metro:Exodus

!!Акция!!

Alien_Rage

RePack

fifa19

RePack

Assassins Creed: Odyssey

RePack

NEED FOR SPEED™ PAYBACK

3 сезон

9 сезон

Бесстыжие 9 сезон

Все сериалы

все сериалы на PB.wtf

RePack

FAR CRY 5
Ребята, катастрофически не хватает 7730р. для оплаты серверов за ИЮЛЬ (всвязи с блокировками трафик упал в 3 раза), 1-2р., выручайте.
  

Комиссарша / Сезон: 1 / Серии: 1-8 из 8 (Елена Николаева) [2017, Военный, драма, HDTVRip] freegat.top

Комиссарша через торрент freegat.top

Раздают: 2 [ 3 KB/s ] Качают: 1 [ 0 KB/s ]
Размер: 5.62 GB | Добавлен: 4 д. назад | Торрент скачан:28 раз
Скачать  

14-08-2019 06:11 Комиссарша Скачать торрент  

Комиссарша Год выпуска: 2017
Страна: Россия
Жанр: Военный, драма
Продолжительность: ~ 00:51:00
Перевод: Не требуется
Субтитры: отсутствуют

Режиссер: Елена Николаева



В ролях: Ирина Пегова, Максим Емельянов, Олег Фомин, Алексей Шевченков, Александр Булатов, Иван Шибанов, Татьяна Колганова, Игорь Лепихин, Наталия Варфоломеева, Иван Рудаков, Вадим Сквирский, Наталья Высочанская, Сергей Беспалов, Егор Лесников, Геннадий Блинов, Игорь Гоппиков, Анна Цуканова-Котт, Анна Дулова, Алексей Байдаков, Анвар Либабов, Никита Барсуков, Анна Скиданова, Антон Чернов, Виталий Соболев, Андрей Благословенский, Павел Гончаров, Дмитрий Житков

Описание: Много лет назад Галина Семенова уехала из родного городка в Москву, оставив маленького сына Илью на воспитание матери. После окончания института девушка устроилась на работу в отделение милиции, а в 1941 году ушла на войну. Получив ранение, Галина через два года возвращается на службу в родной город: на освобожденных землях остро не хватает людей, которые бы навели там порядок. Приехав на место, она выясняет, что город терроризирует банда, в составе которой – ее повзрослевший сын.

Качество: HDTVRip
Формат: AVI

Видео: 720x400 (16:9), 25.000 fps, XviD build 73, 1800 Kbps, 0.25 Bits/Pixel
Аудио: AC3 Dolby Digital, 48 kHz, 2/0 (L,R) ch, 192 kbps
скриншот  скриншот  скриншот  скриншот  скриншот  

General
Complete name : Downloads\Komissarsha.HDTVRip.GeneralFilm\Komissarsha.01.HDTVRip.GeneralFilm.avi
Format : AVI
Format/Info : Audio Video Interleave
File size : 719 MiB
Duration : 50mn 15s
Overall bit rate : 2 001 Kbps
Writing application : VirtualDubMod 1.5.10.3 (build 2550/release)
Writing library : VirtualDubMod build 2550/release
Video #0
ID : 0
Format : MPEG-4 Visual
Format profile : Advanced Simple@L5
Format settings, BVOP : 1
Format settings, QPel : No
Format settings, GMC : No warppoints
Format settings, Matrix : Custom
Codec ID : XVID
Codec ID/Hint : XviD
Duration : 50mn 15s
Bit rate : 1 800 Kbps
Width : 720 pixels
Height : 400 pixels
Display aspect ratio : 16:9
Frame rate : 25.000 fps
Color space : YUV
Chroma subsampling : 4:2:0
Bit depth : 8 bits
Scan type : Progressive
Compression mode : Lossy
Bits/(Pixel*Frame) : 0.250
Stream size : 647 MiB (90%)
Writing library : XviD 73
Audio #1
ID : 1
Format : AC-3
Format/Info : Audio Coding 3
Mode extension : CM (complete main)
Format settings, Endianness : Big
Codec ID : 2000
Duration : 50mn 15s
Bit rate mode : Constant
Bit rate : 192 Kbps
Channel(s) : 2 channels
Channel positions : Front: L R
Sampling rate : 48.0 KHz
Bit depth : 16 bits
Compression mode : Lossy
Stream size : 69.0 MiB (10%)
Alignment : Split accross interleaves
Interleave, duration : 40 ms (1.00 video frame)
Interleave, preload duration : 500 ms

freegat.top



Скачать Комиссарша через торрент http://s017.radikal.ru/i414/1712/1a/6c1e3f8631e8.jpg Скачать фильм Комиссарша через торрент бесплантно в хорошем качестве Описание: Много лет назад Галина Семенова уехала из родного городка в Москву, оставив маленького сына Илью на воспитание матери. После ... 9 10 5
Торрент: Зарегистрирован [2019-08-14 06:11] · скачан: 28 раз
Статус: √ проверено
Размер: 5.62 GB
Как cкачать? Как скачать Комиссарша через торрент | qTorrent

% Раздел Тема Автор DL S | L
Наши сериалы [ 10.18 GB ] Комиссарша / Сезон: 1 / Серии: 1-8 из 8 [2017 Военный HDTVRip 720p] bober100 Скачать
3 | 0
Наши сериалы [ 18.81 GB ] Комиссарша / Сезон 1 / Серии 1-8 из 8 [2017 Военный WEB-DL 1080p] bober100 Скачать
1 | 0


>> Регистрируемся здесь <<






Отзывы и комментарии о схеме читаем и пишем здесь: ---> Отзывы и комментарии о схеме

Новые благодарочки в телеграм довольных пользователей:
скриншот   скриншот   скриншот   скриншот   скриншот
    Дорогой пользователь! Огромная просьба, поблагодарите релизера, оцените раздачу и оставьте свои комментарий, если Вы скачали Комиссарша через торрент бесплатно! Внесите свою лепту в развитие PiratBit!
    Комментировать посты могут только пользователи прошедшие не сложную регистрацию
    Показать сообщения:    

    Комиссарша через торрент
    Скачать бесплатно Комиссарша
    Комиссарша скачать торрент
    Комиссарша смотреть онлайн
    Cкачать фильм Комиссарша бесплатно
    Комиссарша скачать торрент в хорошем качестве
    Комиссарша смотреть онлайн бесплатно в хорошем качестве


    Вы не можете начинать темы
    Вы не можете отвечать на сообщения
    Вы не можете редактировать свои сообщения
    Вы не можете удалять свои сообщения
    Вы не можете голосовать в опросах
    Вы не можете прикреплять файлы к сообщениям
    Вы можете скачивать файлы