новый адрес
Ссылка на приватное зеркало всего за 1$. Внимание количество ограничено!!!

iTunes

1+1

iTunes

мы

WEB-DL

1

iTunes

Чернобыль

iTunes

Ральф против интернета

Лицензия

ПШазам

Лицензия

Оно 2

Лицензия

30
pack

Вам бонус

ВАЖНО

!!Акция!!

Alien_RageХит недели

RePack

Resident Evil 21

ИГРА 18+

pack

RePack

jed

!!Акция!!

Alien_Rage

RePack

fifa19

RePack

Assassins Creed: Odyssey

RePack

NEED FOR SPEED™ PAYBACK

3 сезон

9 сезон

Бесстыжие 9 сезон

Все сериалы

все сериалы на PB.wtf

RePack

FAR CRY 5
Ребята, катастрофически не хватает 1900р. для оплаты серверов за Октябрь (всвязи с блокировками трафик упал в 3 раза), 1-2р., выручайте.
  

Годзилла 2: Король монстров / Godzilla: King of the Monsters (Майкл Догерти) [2019, фантастика, фэнтези, боевик, приключения, WEB-DL 720p, (Amazon)] DUB (rus,ukr) [iTunes] +MVO [HDRezka Studio] freegat.top

Годзилла 2: Король монстров через торрент freegat.top

Раздают: 9 [ 100 KB/s ]
Размер: 5.78 GB | Добавлен: 3 мес. 26 д. назад | Торрент скачан:498 раз
Скачать  

14-08-2019 06:15 Годзилла 2: Король монстров Скачать торрент  

Годзилла 2: Король монстров / Godzilla: King of the Monsters
Год выпуска: 2019
Страна: США, Япония
Жанр: фантастика, фэнтези, боевик, приключения
Продолжительность: 02:11:39
Перевод:

#1: Дублированный | iTunes
#2: Профессиональный многоголосый | HDRezka Studio

Субтитры: Русские (полные, форсированные), английские, украинские

Режиссер: Майкл Догерти

rating

В ролях: Кайл Чандлер, Вера Фармига, Милли Бобби Браун, Кэн Ватанабэ, Чжан Цзыи, Брэдли Уитфорд, Салли Хокинс, Чарльз Дэнс, Томас Миддлдитч, Аиша Хайндс

Описание: История рассказывает о героических усилиях криптозоологического агентства «Монарх» по сдерживанию гигантских монстров. В этот раз против могучего Годзиллы выступают Мотра, Родан и ультимативный кайдзю - трёхголовый монстр Кинг Гидора. Когда эти древние суперхищники, со временем превратившиеся в полузабытые мифы, восстают снова, чтобы сойтись в схватке, человечеству остаётся отойти в сторонку и постараться не погибнуть.

Качество: WEB-DL 720p | Amazon
Формат: MKV

Видео: AVC/H.264, 1248x520 (2.40:1), ~4829 Kbps
Аудио#1: AC3, 6 ch, 384 Kbps | Русский (DUB, iTunes)
Аудио#2: AC3, 2 ch, 192 Kbps | Русский (MVO, HDRezka Studio)
Аудио#3: AAC , 2 ch, 160 Kbps | Украинский (DUB, iTunes)
Аудио#4: Е-AC3, 6 ch, 640 Kbps | Английский (Оригинал)
скриншот  скриншот  скриншот  

General
Format : Matroska
Format version : Version 4
File size : 5.78 GiB
Duration : 2 h 11 min
Overall bit rate : 6 287 kb/s
Encoded date : UTC 2019-08-14 03:55:32
Writing application : mkvmerge v34.0.0 ('Sight and Seen') 64-bit
Writing library : libebml v1.3.7 + libmatroska v1.5.0

Video
ID : 1
Format : AVC
Format/Info : Advanced Video Codec
Format profile : High@L3.1
Format settings : CABAC / 4 Ref Frames
Format settings, CABAC : Yes
Format settings, Reference frames : 4 frames
Codec ID : V_MPEG4/ISO/AVC
Duration : 2 h 11 min
Bit rate mode : Constant
Nominal bit rate : 6 000 kb/s
Width : 1 248 pixels
Height : 520 pixels
Display aspect ratio : 2.40:1
Frame rate mode : Constant
Frame rate : 23.976 (24000/1001) FPS
Color space : YUV
Chroma subsampling : 4:2:0
Bit depth : 8 bits
Scan type : Progressive
Bits/(Pixel*Frame) : 0.386
Title : Godzilla: King of the Monsters 2019 720p WEB-DL DD+5.1 H.264-NTG
Language : English
Default : Yes
Forced : No
Color range : Limited
Color primaries : BT.709
Transfer characteristics : BT.709
Matrix coefficients : BT.709

Audio #1
ID : 2
Format : AC-3
Format/Info : Audio Coding 3
Commercial name : Dolby Digital
Codec ID : A_AC3
Duration : 2 h 11 min
Bit rate mode : Constant
Bit rate : 384 kb/s
Channel(s) : 6 channels
Channel layout : L R C LFE Ls Rs
Sampling rate : 48.0 kHz
Frame rate : 31.250 FPS (1536 SPF)
Bit depth : 16 bits
Compression mode : Lossy
Stream size : 362 MiB (6%)
Title : Дублированный iTunes
Language : Russian
Service kind : Complete Main
Default : Yes
Forced : No

Audio #2
ID : 3
Format : AC-3
Format/Info : Audio Coding 3
Commercial name : Dolby Digital
Codec ID : A_AC3
Duration : 2 h 11 min
Bit rate mode : Constant
Bit rate : 192 kb/s
Channel(s) : 2 channels
Channel layout : L R
Sampling rate : 48.0 kHz
Frame rate : 31.250 FPS (1536 SPF)
Bit depth : 16 bits
Compression mode : Lossy
Stream size : 181 MiB (3%)
Title : MVO - HDRezka Studio
Language : Russian
Service kind : Complete Main
Default : No
Forced : No

Audio #3
ID : 4
Format : AAC LC
Format/Info : Advanced Audio Codec Low Complexity
Codec ID : A_AAC-2
Duration : 2 h 11 min
Channel(s) : 2 channels
Channel layout : L R
Sampling rate : 44.1 kHz
Frame rate : 43.066 FPS (1024 SPF)
Compression mode : Lossy
Title : Дублированный iTunes
Language : Ukrainian
Default : No
Forced : No

Audio #4
ID : 5
Format : E-AC-3
Format/Info : Enhanced AC-3
Commercial name : Dolby Digital Plus
Codec ID : A_EAC3
Duration : 2 h 11 min
Bit rate mode : Constant
Bit rate : 640 kb/s
Channel(s) : 6 channels
Channel layout : L R C LFE Ls Rs
Sampling rate : 48.0 kHz
Frame rate : 31.250 FPS (1536 SPF)
Compression mode : Lossy
Stream size : 603 MiB (10%)
Title : Оригинал
Language : English
Service kind : Complete Main
Default : No
Forced : No

Text #1
ID : 6
Format : UTF-8
Codec ID : S_TEXT/UTF8
Codec ID/Info : UTF-8 Plain Text
Title : Форс.
Language : Russian
Default : Yes
Forced : No

Text #2
ID : 7
Format : UTF-8
Codec ID : S_TEXT/UTF8
Codec ID/Info : UTF-8 Plain Text
Title : Полные
Language : Russian
Default : No
Forced : No

Text #3
ID : 8
Format : UTF-8
Codec ID : S_TEXT/UTF8
Codec ID/Info : UTF-8 Plain Text
Title : Форс.
Language : Ukrainian
Default : No
Forced : No

Text #4
ID : 9
Format : UTF-8
Codec ID : S_TEXT/UTF8
Codec ID/Info : UTF-8 Plain Text
Language : English
Default : No
Forced : No

Text #5
ID : 10
Format : UTF-8
Codec ID : S_TEXT/UTF8
Codec ID/Info : UTF-8 Plain Text
Title : SDH
Language : English
Default : No
Forced : No

Menu
00:00:00.000 : en:1
00:10:50.000 : en:2
00:18:02.000 : en:3
00:30:22.000 : en:4
00:45:12.000 : en:5
00:54:04.000 : en:6
01:05:34.000 : en:7
01:09:24.000 : en:8
01:19:23.000 : en:9
01:29:57.000 : en:10
01:38:27.000 : en:11
01:49:49.000 : en:12
01:59:18.000 : en:13

freegat.top



Скачать Годзилла 2: Король монстров через торрент https://b.radikal.ru/b04/1908/df/526a16fa42f6.jpg Скачать фильм Годзилла 2: Король монстров через торрент бесплантно в хорошем качестве Описание: История рассказывает о героических усилиях криптозоологического агентства «Монарх» по сдерживанию гигантских монстров. В этот раз ... 9.5 10 15
Info! Золотая раздача, скачанное не засчитывается.
Торрент: Зарегистрирован [2019-08-14 06:15] · скачан: 498 раз
Статус: √ проверено
Размер: 5.78 GB
Как cкачать? Как скачать Годзилла 2: Король монстров через торрент | qTorrent

% Раздел Тема Автор DL S | L
Фильмы 2019 [DVDrip, WEB-DLRip, HDrip] (DUB, MVO) [ 2.82 GB ] Годзилла 2: Король монстров / Godzilla: King of the Monsters [2019 WEB-DLRip-AVC] - ExKinoRay Enigma2010 Скачать
51 | 0
Фильмы (Blu-ray, BD-Remux, HDDVD) [ 45.16 GB ] Годзилла 2: Король монстров / Godzilla: King of the Monsters [2019 Blu-ray EUR 1080p] DUB [] bober100 Скачать
1 | 0
Ultra HD (UHD: 2K, 4K, 8K) — видео сверхвысокой чёткости [ 64.08 GB ] Годзилла 2: Король монстров / Godzilla: King of the Monsters [2019 UHD Blu-ray 2160p] [Dolby Vision] DUB [] bober100 Скачать
1 | 0
Ultra HD (UHD: 2K, 4K, 8K) — видео сверхвысокой чёткости [ 56.65 GB ] Годзилла 2: Король монстров / Godzilla: King of the Monsters [2019 UHD BDRemux 2160p] DUB [] +MVO [HDRezka Studio] bober100 Скачать
1 | 0
R.G. Resident & PiratVoice - Фильмы, Видео [ 466 MB ] Годзилла 2: Король монстров / Godzilla: King of the Monsters [2019 HDRip | КПК ] Cтрана Скачать
3 | 0
3D Фильмы [ 14.06 GB ] Годзилла 2: Король монстров 3Д / Godzilla: King of the Monsters 3D [2019 BDRip 1080p] [Half OverUnder] DUB [] bober100 Скачать
3 | 0
Фильмы [HD 720p, 1080p] (Хороший звук DUB, MVO) [ 10.61 GB ] Годзилла 2: Король монстров / Godzilla: King of the Monsters [2019 BDRip-HEVC 1080p ] DUB [] bober100 Скачать
7 | 1

28-11-2019 20:33  

Отключить всю рекламу на сайте

    Дорогой пользователь! Огромная просьба, поблагодарите релизера, оцените раздачу и оставьте свои комментарий, если Вы скачали Годзилла 2: Король монстров через торрент бесплатно! Внесите свою лепту в развитие PiratBit!
    Комментировать посты могут только пользователи прошедшие не сложную регистрацию
    Показать сообщения:    

    Годзилла 2: Король монстров через торрент
    Скачать бесплатно Годзилла 2: Король монстров
    Годзилла 2: Король монстров скачать торрент
    Годзилла 2: Король монстров смотреть онлайн
    Cкачать фильм Годзилла 2: Король монстров бесплатно
    Годзилла 2: Король монстров скачать торрент в хорошем качестве
    Годзилла 2: Король монстров смотреть онлайн бесплатно в хорошем качестве


    Вы не можете начинать темы
    Вы не можете отвечать на сообщения
    Вы не можете редактировать свои сообщения
    Вы не можете удалять свои сообщения
    Вы не можете голосовать в опросах
    Вы не можете прикреплять файлы к сообщениям
    Вы можете скачивать файлы