Мега распродажа FORZA HORIZON 4 ULTIMATE+ВСЕ DLC+ОНЛАЙН всего за 499р. 349 руб. (супер цена). Внимание количество ограничено!!!

iTunes

1+1

iTunes

мы

iTunes

1

iTunes

Чернобыль

1 сезон

Ральф против интернета

Лицензия

ПШазам

Лицензия

Игра престолов

Лицензия

30
pack

ВАЖНО

!!Акция!!

Alien_RageХит недели

RePack

Resident Evil 21

ИГРА 18+

pack

RePack

Metro:Exodus

!!Акция!!

Alien_Rage

RePack

fifa19

RePack

Assassins Creed: Odyssey

RePack

NEED FOR SPEED™ PAYBACK

3 сезон

9 сезон

Бесстыжие 9 сезон

Все сериалы

все сериалы на PB.wtf

RePack

FAR CRY 5
Ребята, катастрофически не хватает 7730р. для оплаты серверов за ИЮЛЬ (всвязи с блокировками трафик упал в 3 раза), 1-2р., выручайте.
  

Коррупционер / The Corrupted (Рон Скальпелло) [2019, триллер, драма, криминал, WEB-DL 1080p] DUB [iTunes] freegat.top

Коррупционер через торрент freegat.top

Раздают: 12 [ 257 KB/s ]
Размер: 3.57 GB | Добавлен: 2 д. 22 ч. назад | Торрент скачан:85 раз
Скачать  

14-08-2019 06:52 Коррупционер Скачать торрент  

Коррупционер / The Corrupted
Год выпуска: 2019
Страна: Великобритания
Жанр: триллер, драма, криминал
Продолжительность: 01:43:20
Перевод: Дублированный | iTunes
Субтитры: отсутствуют

Режиссер: Рон Скальпелло

rating

В ролях: Сэм Клафлин, Чарли Мерфи, Тимоти Сполл, Хью Бонневилль, Шон Дули, Адам Лонг, Дэвид Хейман, Ноэль Кларк, Лоррейн Эшборн, Наоми Аки

Описание: Канун Олимпийских игр 2012 года, Лондон. Лиам - бывший заключенный, и теперь, выйдя на свободу, пытается вернуть доверие и любовь семьи. В своё время он попал в переплёт из-за Клиффорда Каллена, главы преступного синдиката, связанного с крупными политиками и чиновниками. Пытаясь искупить свою вину, парень оказывается в центре очередного криминального заговора, выпутаться из которого непросто. Но Лиам приложит к этому максимум усилий.

Качество: WEB-DL 1080p
Формат: MKV

Видео: MPEG-4 AVC, 1920x804, 4564 Кbit/s, 23.976 fps
Аудио: 48 kHz, AC3, 5.1, 384 Kbps | iTunes | RUS |
скриншот  скриншот  скриншот  скриншот  скриншот  

General
Unique ID : 300882607433191471170311609443547398070 (0xE25BE1E10A437AA1F699136E5714BFB6)
Complete name : D:Video111The.Corrupted.2018.WEB-DL.1080p.seleZen.mkv
Format : Matroska
Format version : Version 4
File size : 3.57 GiB
Duration : 1 h 43 min
Overall bit rate : 4 950 kb/s
Movie name : The Corrupted 2018 from селезень
Encoded date : UTC 2019-08-15 07:06:40
Writing application : mkvmerge v22.0.0 ('At The End Of The World') 64-bit
Writing library : libebml v1.3.5 + libmatroska v1.4.8

Video
ID : 1
Format : AVC
Format/Info : Advanced Video Codec
Format profile : High@L4
Format settings : CABAC / 5 Ref Frames
Format settings, CABAC : Yes
Format settings, Reference : 5 frames
Codec ID : V_MPEG4/ISO/AVC
Duration : 1 h 43 min
Bit rate : 4 564 kb/s
Width : 1 920 pixels
Height : 804 pixels
Display aspect ratio : 2.40:1
Frame rate mode : Constant
Frame rate : 24.000 FPS
Color space : YUV
Chroma subsampling : 4:2:0
Bit depth : 8 bits
Scan type : Progressive
Bits/(Pixel*Frame) : 0.123
Stream size : 3.29 GiB (92%)
Language : English
Default : Yes
Forced : No
Color range : Limited
Color primaries : BT.709
Transfer characteristics : BT.709
Matrix coefficients : BT.709

Audio
ID : 2
Format : AC-3
Format/Info : Audio Coding 3
Commercial name : Dolby Digital
Codec ID : A_AC3
Duration : 1 h 43 min
Bit rate mode : Constant
Bit rate : 384 kb/s
Channel(s) : 6 channels
Channel layout : L R C LFE Ls Rs
Sampling rate : 48.0 kHz
Frame rate : 31.250 FPS (1536 SPF)
Bit depth : 16 bits
Compression mode : Lossy
Stream size : 284 MiB (8%)
Title : iTunes
Language : Russian
Service kind : Complete Main
Default : Yes
Forced : Yes

Menu
00:00:00.000 : en:Глава 1
00:05:39.958 : en:Глава 2
00:12:13.499 : en:Глава 3
00:20:06.624 : en:Глава 4
00:27:39.249 : en:Глава 5
00:33:14.165 : en:Глава 6
00:41:07.831 : en:Глава 7
00:49:42.331 : en:Глава 8
00:55:37.872 : en:Глава 9
01:03:36.538 : en:Глава 10
01:09:24.704 : en:Глава 11
01:17:18.370 : en:Глава 12
01:28:22.828 : en:Глава 13
01:34:42.369 : en:Глава 14

freegat.top



Скачать Коррупционер через торрент https://img16.lostpic.net/2019/08/15/ba904e83ac2cc181c7d506595e0f5229.jpg Скачать фильм Коррупционер через торрент бесплантно в хорошем качестве Описание: Канун Олимпийских игр 2012 года, Лондон. Лиам - бывший заключенный, и теперь, выйдя на свободу, пытается вернуть доверие и любовь ... 9.6 10 7
Торрент: Зарегистрирован [2019-08-15 07:23] · скачан: 85 раз
Статус: √ проверено
Размер: 3.57 GB
Как cкачать? Как скачать Коррупционер через торрент | qTorrent

% Раздел Тема Автор DL S | L
Фильмы 2019 [DVDrip, WEB-DLRip, HDrip] (DUB, MVO) [ 1.46 GB ] Коррупционер / The Corrupted [2019 WEB-DLRip] bober100 Скачать
17 | 2


>> Регистрируемся здесь <<






Отзывы и комментарии о схеме читаем и пишем здесь: ---> Отзывы и комментарии о схеме

Новые благодарочки в телеграм довольных пользователей:
скриншот   скриншот   скриншот   скриншот   скриншот
    Дорогой пользователь! Огромная просьба, поблагодарите релизера, оцените раздачу и оставьте свои комментарий, если Вы скачали Коррупционер через торрент бесплатно! Внесите свою лепту в развитие PiratBit!
    Комментировать посты могут только пользователи прошедшие не сложную регистрацию
    Показать сообщения:    

    Коррупционер через торрент
    Скачать бесплатно Коррупционер
    Коррупционер скачать торрент
    Коррупционер смотреть онлайн
    Cкачать фильм Коррупционер бесплатно
    Коррупционер скачать торрент в хорошем качестве
    Коррупционер смотреть онлайн бесплатно в хорошем качестве


    Вы не можете начинать темы
    Вы не можете отвечать на сообщения
    Вы не можете редактировать свои сообщения
    Вы не можете удалять свои сообщения
    Вы не можете голосовать в опросах
    Вы не можете прикреплять файлы к сообщениям
    Вы можете скачивать файлы