MEGA SALE -50% FORZA HORIZON 4 ULTIMATE+ВСЕ DLC+ОНЛАЙН всего за 599р. 299 руб. (супер цена). Внимание количество ограничено!!!

iTunes

1+1

iTunes

мы

iTunes

1

iTunes

Чернобыль

1 сезон

Ральф против интернета

Лицензия

ПШазам

Лицензия

Игра престолов

Лицензия

30
pack

ВАЖНО

!!Акция!!

Alien_RageХит недели

RePack

Resident Evil 21

ИГРА 18+

pack

RePack

Metro:Exodus

!!Акция!!

Alien_Rage

RePack

fifa19

RePack

Assassins Creed: Odyssey

RePack

NEED FOR SPEED™ PAYBACK

3 сезон

9 сезон

Бесстыжие 9 сезон

Все сериалы

все сериалы на PB.wtf

RePack

FAR CRY 5
Ребята, катастрофически не хватает 7730р. для оплаты серверов за ИЮЛЬ (всвязи с блокировками трафик упал в 3 раза), 1-2р., выручайте.
  

Детоксикация / D-Tox (Джим Гиллеспи) [2002, Боевик, триллер, драма, криминал, BDRip 1080p] MVO+2xAVO+DVO freegat.top

Детоксикация через торрент freegat.top

Раздают: 3 [ 0 KB/s ]
Размер: 9.33 GB | Добавлен: 6 д. назад | Торрент скачан:30 раз
Скачать  

14-08-2019 07:15 Детоксикация Скачать торрент  

Детоксикация / D-Tox
Год выпуска: 2002
Страна: США , Германия
Жанр: Боевик, триллер, драма, криминал
Продолжительность: 01:35:44
Перевод: Профессиональный (многоголосый), aвторский (одноголосый), профессиональный (двухголосый)
Субтитры: Русские, английские

Режиссер: Джим Гиллеспи

rating

В ролях: Сильвестр Сталлоне, Чарльз С. Даттон, Полли Уокер, Крис Кристофферсон, Миф, Кристофер Фулфорд, Джеффри Райт, Роберт Патрик, Том Беренджер, Стивен Лэнг, Алан С. Петерсон

Описание: Агент ФБР Джейк Малой стал свидетелем зверского убийства. Джейку так и не удалось справиться с пережитым шоком: он начинает искать забвение в алкоголе. Пытаясь вернуться в нормальной жизни, агент соглашается пройти детоксикацию в закрытой клинике для «опустившихся» полицейских. Клиника отрезана от внешнего мира и расположена глубоко в заснеженном лесу. Здесь проходит курс лечения разношерстная группа пациентов служителей закона «с отклонениями».Однако эта компания так и не успеет излечиться от пагубных пристрастий: их пребывание в клинике превращается в жуткий и кровавый кошмар. Мрачные стены лечебницы содрогаются от невероятных по своей жестокости убийств. Кто-то начинает умерщвлять обитателей клиники одного за другим. И, что самое страшное, агент Малой узнает почерк убийцы

Качество: BDRip 1080p
Формат: MKV

Видео: 1920x816, 23.976 fps, 8287 kbps
Аудио#1: Russian: DTS / 5.1 / 768 kbps - Профессиональный (многоголосый)
Аудио#2: Russian: DTS / 5.1 / 1509 kbps - Гаевский
Аудио#3: Russian: AC3 / 5.1 / 448 kbps - Гаврилов
Аудио#4: Russian: DTS / 5.1 / 1509 kbps - Гланц и Королева
Аудио#5: English: DTS / 5.1 / 1509 kbps
скриншот  скриншот  скриншот  скриншот  

Unique ID : 282858042365893270737028607597802102027 (0xD4CC7A3598C9D95ED437F3AF01831D0B)
Complete name : C:/D-Tox (Eye See You).x264.1080p.FHDRip.stimco.mkv
Format : Matroska
Format version : Version 4 / Version 2
File size : 9.33 GiB
Duration : 1 h 35 min
Overall bit rate : 14.0 Mb/s
Movie name : =D-TOX=
Encoded date : UTC 2018-02-16 15:30:52
Writing application : mkvmerge v20.0.0 ('I Am The Sun') 64-bit
Writing library : libebml v1.3.5 + libmatroska v1.4.8

Video
ID : 1
Format : AVC
Format/Info : Advanced Video Codec
Format profile : High@L4.1
Format settings : CABAC / 5 Ref Frames
Format settings, CABAC : Yes
Format settings, ReFrames : 5 frames
Codec ID : V_MPEG4/ISO/AVC
Duration : 1 h 35 min
Bit rate : 8 287 kb/s
Width : 1 920 pixels
Height : 816 pixels
Display aspect ratio : 2.35:1
Frame rate mode : Constant
Frame rate : 23.976 (24000/1001) FPS
Color space : YUV
Chroma subsampling : 4:2:0
Bit depth : 8 bits
Scan type : Progressive
Bits/(Pixel*Frame) : 0.221
Stream size : 5.54 GiB (59%)
Writing library : x264 core 155 r2901 7d0ff22
Encoding settings : cabac=1 / ref=5 / deblock=1:-3:-3 / analyse=0x3:0x133 / me=umh / subme=10 / psy=1 / psy_rd=1.00:0.10 / mixed_ref=1 / me_range=45 / chroma_me=1 / trellis=2 / 8x8dct=1 / cqm=0 / deadzone=21,11 / fast_pskip=1 / chroma_qp_offset=-2 / threads=6 / lookahead_threads=1 / sliced_threads=0 / nr=0 / decimate=1 / interlaced=0 / bluray_compat=0 / constrained_intra=0 / bframes=8 / b_pyramid=2 / b_adapt=2 / b_bias=0 / direct=1 / weightb=1 / open_gop=0 / weightp=2 / keyint=240 / keyint_min=23 / scenecut=40 / intra_refresh=0 / rc_lookahead=70 / rc=crf / mbtree=1 / crf=17.5 / qcomp=0.60 / qpmin=0 / qpmax=65 / qpstep=4 / vbv_maxrate=62500 / vbv_bufsize=78125 / crf_max=0.0 / nal_hrd=none / filler=0 / ip_ratio=1.30 / aq=1:0.80
Language : English
Default : Yes
Forced : No

Audio #1
ID : 2
Format : DTS
Format/Info : Digital Theater Systems
Codec ID : A_DTS
Duration : 1 h 35 min
Bit rate mode : Constant
Bit rate : 768 kb/s
Channel(s) : 6 channels
Channel positions : Front: L C R, Side: L R, LFE
Sampling rate : 48.0 kHz
Frame rate : 93.750 FPS (512 SPF)
Bit depth : 24 bits
Compression mode : Lossy
Stream size : 526 MiB (6%)
Title : mvo_BD
Language : Russian
Default : Yes
Forced : No

Audio #2
ID : 3
Format : DTS
Format/Info : Digital Theater Systems
Codec ID : A_DTS
Duration : 1 h 34 min
Bit rate mode : Constant
Bit rate : 1 509 kb/s
Channel(s) : 6 channels
Channel positions : Front: L C R, Side: L R, LFE
Sampling rate : 48.0 kHz
Frame rate : 93.750 FPS (512 SPF)
Bit depth : 24 bits
Compression mode : Lossy
Stream size : 1 023 MiB (11%)
Title : avo_Gaevskiy
Language : Russian
Default : No
Forced : No

Audio #3
ID : 4
Format : AC-3
Format/Info : Audio Coding 3
Codec ID : A_AC3
Duration : 1 h 35 min
Bit rate mode : Constant
Bit rate : 384 kb/s
Channel(s) : 6 channels
Channel positions : Front: L C R, Side: L R, LFE
Sampling rate : 48.0 kHz
Frame rate : 31.250 FPS (1536 SPF)
Bit depth : 16 bits
Compression mode : Lossy
Stream size : 263 MiB (3%)
Title : avo_Gavrilov
Language : Russian
Service kind : Complete Main
Default : No
Forced : No

Audio #4
ID : 5
Format : DTS
Format/Info : Digital Theater Systems
Codec ID : A_DTS
Duration : 1 h 35 min
Bit rate mode : Constant
Bit rate : 1 510 kb/s
Channel(s) : 6 channels
Channel positions : Front: L C R, Side: L R, LFE
Sampling rate : 48.0 kHz
Frame rate : 93.750 FPS (512 SPF)
Bit depth : 24 bits
Compression mode : Lossy
Stream size : 1.01 GiB (11%)
Title : dvo_Glanz&Koroleva
Language : Russian
Default : No
Forced : No

Audio #5
ID : 6
Format : DTS
Format/Info : Digital Theater Systems
Codec ID : A_DTS
Duration : 1 h 35 min
Bit rate mode : Constant
Bit rate : 1 509 kb/s
Channel(s) : 6 channels
Channel positions : Front: L C R, Side: L R, LFE
Sampling rate : 48.0 kHz
Frame rate : 93.750 FPS (512 SPF)
Bit depth : 24 bits
Compression mode : Lossy
Stream size : 1.01 GiB (11%)
Language : English
Default : No
Forced : No

Text #1
ID : 7
Format : UTF-8
Codec ID : S_TEXT/UTF8
Codec ID/Info : UTF-8 Plain Text
Duration : 1 h 30 min
Bit rate : 79 b/s
Count of elements : 739
Stream size : 52.3 KiB (0%)
Language : Russian
Default : Yes
Forced : No

Text #2
ID : 8
Format : UTF-8
Codec ID : S_TEXT/UTF8
Codec ID/Info : UTF-8 Plain Text
Duration : 1 h 30 min
Bit rate : 42 b/s
Count of elements : 754
Stream size : 28.0 KiB (0%)
Language : English
Default : No
Forced : No

Menu
00:00:00.000 : en:00:00:00.000
00:03:18.824 : en:00:03:18.824
00:09:02.834 : en:00:09:02.834
00:16:05.548 : en:00:16:05.548
00:20:18.676 : en:00:20:18.676
00:24:21.418 : en:00:24:21.418
00:31:14.331 : en:00:31:14.331
00:35:17.907 : en:00:35:17.907
00:40:20.752 : en:00:40:20.752
00:45:36.651 : en:00:45:36.651
00:52:41.075 : en:00:52:41.075
00:58:17.452 : en:00:58:17.452
01:04:26.321 : en:01:04:26.321
01:09:36.422 : en:01:09:36.422
01:16:10.941 : en:01:16:10.941
01:22:41.081 : en:01:22:41.081
01:25:57.986 : en:01:25:57.986
01:31:41.454 : en:01:31:41.454

freegat.top



Скачать Детоксикация через торрент http://lostpic.net/images/f8116532c8a8db9af50159fd397f4b43.png Скачать фильм Детоксикация через торрент бесплантно в хорошем качестве Описание: Агент ФБР Джейк Малой стал свидетелем зверского убийства. Джейку так и не удалось справиться с пережитым шоком: он начинает ... 10 10 4
Торрент: Зарегистрирован [2019-08-14 07:15] · скачан: 30 раз
Статус: √ проверено
Размер: 9.33 GB
Как cкачать? Как скачать Детоксикация через торрент | qTorrent


>> Регистрируемся здесь <<






Отзывы и комментарии о схеме читаем и пишем здесь: ---> Отзывы и комментарии о схеме

Новые благодарочки в телеграм довольных пользователей:
скриншот   скриншот   скриншот   скриншот   скриншот
    Дорогой пользователь! Огромная просьба, поблагодарите релизера, оцените раздачу и оставьте свои комментарий, если Вы скачали Детоксикация через торрент бесплатно! Внесите свою лепту в развитие PiratBit!
    Комментировать посты могут только пользователи прошедшие не сложную регистрацию
    Показать сообщения:    

    Детоксикация через торрент
    Скачать бесплатно Детоксикация
    Детоксикация скачать торрент
    Детоксикация смотреть онлайн
    Cкачать фильм Детоксикация бесплатно
    Детоксикация скачать торрент в хорошем качестве
    Детоксикация смотреть онлайн бесплатно в хорошем качестве


    Вы не можете начинать темы
    Вы не можете отвечать на сообщения
    Вы не можете редактировать свои сообщения
    Вы не можете удалять свои сообщения
    Вы не можете голосовать в опросах
    Вы не можете прикреплять файлы к сообщениям
    Вы можете скачивать файлы