MEGA SALE -50% FORZA HORIZON 4 ULTIMATE+ВСЕ DLC+ОНЛАЙН всего за 599р. 299 руб. (супер цена). Внимание количество ограничено!!!

iTunes

1+1

iTunes

мы

iTunes

1

iTunes

Чернобыль

1 сезон

Ральф против интернета

Лицензия

ПШазам

Лицензия

Игра престолов

Лицензия

30
pack

ВАЖНО

!!Акция!!

Alien_RageХит недели

RePack

Resident Evil 21

ИГРА 18+

pack

RePack

Metro:Exodus

!!Акция!!

Alien_Rage

RePack

fifa19

RePack

Assassins Creed: Odyssey

RePack

NEED FOR SPEED™ PAYBACK

3 сезон

9 сезон

Бесстыжие 9 сезон

Все сериалы

все сериалы на PB.wtf

RePack

FAR CRY 5
Ребята, катастрофически не хватает 7730р. для оплаты серверов за ИЮЛЬ (всвязи с блокировками трафик упал в 3 раза), 1-2р., выручайте.
  

Гвен / Gwen (Уильям МакГрегор) [2018, Драма, история, ужасы, WEB-DLRip] MVO [HDRezka Studio] freegat.top

Гвен через торрент freegat.top

Раздают: 11 [ 255 KB/s ]
Размер: 1.46 GB | Добавлен: 6 д. назад | Торрент скачан:58 раз
Скачать  

14-08-2019 07:34 Гвен Скачать торрент  

Гвен / Gwen
Год выпуска: 2018
Страна: Великобритания
Жанр: Драма, история, ужасы
Продолжительность: 01:24:11
Перевод: Профессиональный (многоголосый) | HDRezka Studio
Субтитры: отсутствуют

Режиссер: Уильям МакГрегор

rating

В ролях: Максин Пик, Ричард Херрингтон, Элинор Вортингтон-Кокс, Марк Льюис Джонс, Кобна Холдбрук-Смит, Ричард Элфин, Гвион Глин, Дифриг Эванс, Джоди Иннес

Описание: События развиваются в Северном Уэльсе в 19-м веке вокруг Гвен — девушки-подростка, которая живет на ферме вместе со своей младшей сестрой Мэри и матерью Элен. Главу небольшого семейства забрали на войну, что плачевно сказалось на финансовом положении его близких. Гвен приходится присматривать за вечно болеющей матерью и сестренкой, заниматься хозяйством и противостоять нападкам со стороны горнодобывающей компании, покушающейся на их землю. Но ситуация окончательно выходит из-под контроля, когда на ферме начинают происходить мистические события: погибает стадо овец, портится весь урожай и ухудшается состояние Элен.

Качество: WEB-DLRip
Формат: AVI

Видео: 720x304 (2.35:1), 24.000 fps, XviD build 73 ~1 893 kbps avg
Аудио#1: 48.0 kHz, AC3 Dolby Digital, 2/0 (L,R) ch, ~192 kbps | RUS / МVO
Аудио#2: 48.0 kHz, AC3 Dolby Digital, 3/2 (L,C,R,l,r) + LFE ch, ~384 kbps | ENG
скриншот  скриншот  скриншот  

General
Формат : AVI
Формат/Информация : Audio Video Interleave
Размер файла : 1,46 Гбайт
Продолжительность : 1 ч. 24 м.
Общий поток : 2483 Кбит/сек
Название фильма : Гвен_2018_WEB-DLRip
Программа кодирования : VirtualDubMod 1.5.10.3 | (build 2550/release)
Авторское право : порошков

Видео
Идентификатор : 0
Формат : MPEG-4 Visual
Профиль формата : Advanced Simple@L5
Настройки формата : BVOP1 / Custom Matrix
Параметр BVOP формата : 1
Параметр QPel формата : Нет
Параметр GMC формата : Без точки перехода
Параметр матрицы формата : Выборочная
Идентификатор кодека : XVID
Идентификатор кодека/Подсказка : XviD
Продолжительность : 1 ч. 24 м.
Битрейт : 1893 Кбит/сек
Ширина : 720 пикселей
Высота : 304 пикселя
Соотношение сторон : 2,35:1
Частота кадров : 24,000 кадра/сек
Цветовое пространство : YUV
Субдискретизация насыщенности : 4:2:0
Битовая глубина : 8 бит
Тип развёртки : Прогрессивная
Метод сжатия : С потерями
Бит/(Пиксели*Кадры) : 0.360
Размер потока : 1,11 Гбайт (76%)
Библиотека кодирования : XviD 73

Аудио #1
Идентификатор : 1
Формат : AC-3
Формат/Информация : Audio Coding 3
Коммерческое название : Dolby Digital
Идентификатор кодека : 2000
Продолжительность : 1 ч. 24 м.
Вид битрейта : Постоянный
Битрейт : 192 Кбит/сек
Каналы : 2 канала
ChannelLayout : L R
Частота : 48,0 КГц
Частота кадров : 31,250 кадров/сек (1536 SPF)
Битовая глубина : 16 бит
Метод сжатия : С потерями
Размер потока : 116 Мбайт (8%)
Выравнивание : Разделение по промежуткам
Продолжительность промежутка : 42 мс. (1,00 видеокадр)
Время предзагрузки промежутка : 500 мс.
Заголовок : Rus

Аудио #2
Идентификатор : 2
Формат : AC-3
Формат/Информация : Audio Coding 3
Коммерческое название : Dolby Digital
Идентификатор кодека : 2000
Продолжительность : 1 ч. 24 м.
Вид битрейта : Постоянный
Битрейт : 384 Кбит/сек
Каналы : 6 каналов
ChannelLayout : L R C LFE Ls Rs
Частота : 48,0 КГц
Частота кадров : 31,250 кадров/сек (1536 SPF)
Битовая глубина : 16 бит
Метод сжатия : С потерями
Размер потока : 231 Мбайт (15%)
Выравнивание : Разделение по промежуткам
Продолжительность промежутка : 42 мс. (1,00 видеокадр)
Время предзагрузки промежутка : 500 мс.
Заголовок : Eng

freegat.top



Скачать Гвен через торрент http://d.radikal.ru/d40/1908/60/2d0c8506992a.jpg Скачать фильм Гвен через торрент бесплантно в хорошем качестве Описание: События развиваются в Северном Уэльсе в 19-м веке вокруг Гвен — девушки-подростка, которая живет на ферме вместе со своей младшей ... 10 10 6
Торрент: Зарегистрирован [2019-08-14 07:34] · скачан: 58 раз
Статус: T временная
Размер: 1.46 GB
Как cкачать? Как скачать Гвен через торрент | qTorrent

% Раздел Тема Автор DL S | L
T Фильмы (WEB-DL 720p, 1080p) [ 3.1 GB ] Гвен / Gwen [2018 история WEB-DL 1080p] MVO [HDRezka Studio] bober100 Скачать
5 | 0


>> Регистрируемся здесь <<






Отзывы и комментарии о схеме читаем и пишем здесь: ---> Отзывы и комментарии о схеме

Новые благодарочки в телеграм довольных пользователей:
скриншот   скриншот   скриншот   скриншот   скриншот
    Дорогой пользователь! Огромная просьба, поблагодарите релизера, оцените раздачу и оставьте свои комментарий, если Вы скачали Гвен через торрент бесплатно! Внесите свою лепту в развитие PiratBit!
    Комментировать посты могут только пользователи прошедшие не сложную регистрацию
    Показать сообщения:    

    Гвен через торрент
    Скачать бесплатно Гвен
    Гвен скачать торрент
    Гвен смотреть онлайн
    Cкачать фильм Гвен бесплатно
    Гвен скачать торрент в хорошем качестве
    Гвен смотреть онлайн бесплатно в хорошем качестве


    Вы не можете начинать темы
    Вы не можете отвечать на сообщения
    Вы не можете редактировать свои сообщения
    Вы не можете удалять свои сообщения
    Вы не можете голосовать в опросах
    Вы не можете прикреплять файлы к сообщениям
    Вы можете скачивать файлы