MEGA SALE -50% FORZA HORIZON 4 ULTIMATE+ВСЕ DLC+ОНЛАЙН всего за 599р. 299 руб. (супер цена). Внимание количество ограничено!!!

iTunes

1+1

iTunes

мы

iTunes

1

iTunes

Чернобыль

iTunes

Ральф против интернета

Лицензия

ПШазам

Лицензия

Игра престолов

Лицензия

30
pack

ВАЖНО

!!Акция!!

Alien_RageХит недели

RePack

Resident Evil 21

ИГРА 18+

pack

RePack

Metro:Exodus

!!Акция!!

Alien_Rage

RePack

fifa19

RePack

Assassins Creed: Odyssey

RePack

NEED FOR SPEED™ PAYBACK

3 сезон

9 сезон

Бесстыжие 9 сезон

Все сериалы

все сериалы на PB.wtf

RePack

FAR CRY 5
Ребята, катастрофически не хватает 7730р. для оплаты серверов за АВГУСТ (всвязи с блокировками трафик упал в 3 раза), 1-2р., выручайте.
  

Снегопад / Snowfall / Сезон: 3 / Серия: 1-10 из 10 (Дэниэл Эттиэс, Майкл Леманн, Джон Синглтон) [2019, Драма, криминал, WEB-DL 720p] [MVO] (TVShows) freegat.top

Снегопад через торрент freegat.top

Размер: 17.44 GB | Добавлен: 2 д. 6 ч. назад | Торрент скачан:3 раза
Скачать  

18-08-2019 14:06 Снегопад Скачать торрент  

Снегопад | Snowfall
Год выпуска: 2019
Страна: США
Жанр: Драма, криминал
Продолжительность: ~ 00:50:00
Перевод: Профессиональный (многоголосый закадровый) | *TVShows*

Режиссёр: Дэниэл Эттиэс, Майкл Леманн, Джон Синглтон

В ролях: Демсон Идрис, Серхио Перис-Менчета, Айзиа Джон, Эймин Джозеф, Клаудия Абрего, Рой Авигдори, Лиана Легаспи, Адам Карст, Бернардо Бадилло, Ник Бишоп, Маркис Мур, Альберт А Вега, Розалинд Лотт, Алон Абутбул, Катрин Чен, Иоланда Инглиш, Тейлор Ковальски, Элли Патрикиос, Тринити Стоукс и др.
Описание: Сериал о начале кокаиновой эпидемии в Лос-Анджелесе начала 1980-х, когда на улицах Америки появился дешёвый крэк из Доминиканы, и страну захлестнул неконтролируемый рост преступности.

rating скриншот  
Качество: WEB-DL 720p
Формат: MKV
Видео: MPEG-4 AVC, ~ 5394 Кбит/с, 1280x720
Аудио №1: AC3, 48,0 kHz, 6 ch, 448 kbps | TVShows
Аудио №2: E-AC3, 48,0 kHz, 6 ch, 640 kbps | Original
Субтитры: английские (SDH)
General
Unique ID : 129201119715903152574236355912551639113 (0x61333B041311D4A92BF1C6DD606C2849)
Complete name : E:\Snowfall.S03.720p.TVShows\Snowfall.S03E01.720p.TVShows.mkv
Format : Matroska
Format version : Version 4 / Version 2
File size : 1.88 GiB
Duration : 49 min 59 s
Overall bit rate : 5 393 kb/s
Encoded date : UTC 2019-07-18 18:10:40
Writing application : mkvmerge v33.1.0 ('Primrose') 64-bit
Writing library : libebml v1.3.7 + libmatroska v1.5.0

Video
ID : 1
Format : AVC
Format/Info : Advanced Video Codec
Format profile : Main@L3.1
Format settings : CABAC / 2 Ref Frames
Format settings, CABAC : Yes
Format settings, RefFrames : 2 frames
Codec ID : V_MPEG4/ISO/AVC
Duration : 49 min 59 s
Bit rate : 4 197 kb/s
Width : 1 280 pixels
Height : 720 pixels
Display aspect ratio : 16:9
Frame rate mode : Constant
Frame rate : 23.976 (24000/1001) FPS
Color space : YUV
Chroma subsampling : 4:2:0
Bit depth : 8 bits
Scan type : Progressive
Bits/(Pixel*Frame) : 0.190
Stream size : 1.47 GiB (78%)
Language : English
Default : Yes
Forced : No

Audio #1
ID : 2
Format : AC-3
Format/Info : Audio Coding 3
Format settings, Endianness : Big
Codec ID : A_AC3
Duration : 49 min 59 s
Bit rate mode : Constant
Bit rate : 448 kb/s
Channel(s) : 6 channels
Channel positions : Front: L C R, Side: L R, LFE
Sampling rate : 48.0 kHz
Frame rate : 31.250 FPS (1536 SPF)
Bit depth : 16 bits
Compression mode : Lossy
Stream size : 160 MiB (8%)
Title : TVShows
Language : Russian
Service kind : Complete Main
Default : Yes
Forced : Yes

Audio #2
ID : 3
Format : E-AC-3
Format/Info : Enhanced Audio Coding 3
Format settings, Endianness : Big
Codec ID : A_EAC3
Duration : 49 min 59 s
Bit rate mode : Constant
Bit rate : 640 kb/s
Channel(s) : 6 channels
Channel positions : Front: L C R, Side: L R, LFE
Sampling rate : 48.0 kHz
Frame rate : 187.500 FPS (256 SPF)
Compression mode : Lossy
Delay relative to video : 3 ms
Stream size : 229 MiB (12%)
Title : Original
Language : English
Service kind : Complete Main
Default : No
Forced : No

Text
ID : 4
Format : UTF-8
Codec ID : S_TEXT/UTF8
Codec ID/Info : UTF-8 Plain Text
Title : English
Language : English
Default : No
Forced : No
При каждом добавлении создаётся новый торрент. Чтобы начать докачку новой серии, пользователям необходимо сделать следующее:
- остановить скачивание;
- удалить старый торрент у себя из клиента (старые серии удалять не надо);
- скачать новый торрент и запустить его у себя в клиенте вместо старого, при этом указать клиенту путь в старую папку, куда и должно происходить скачивание новых серий.
скриншот  скриншот  скриншот  
freegat.top



Скачать Снегопад через торрент https://c.radikal.ru/c13/1907/e7/7075a77729cd.png Скачать фильм Снегопад через торрент бесплантно в хорошем качестве Описание: Сериал о начале кокаиновой эпидемии в Лос-Анджелесе начала 1980-х, когда на улицах Америки появился дешёвый крэк из Доминиканы, и ... 10 10 1
Торрент: Зарегистрирован [2019-09-15 19:44] · скачан: 3 раз
Статус: √ проверено
Размер: 17.44 GB
Как cкачать? Как скачать Снегопад через торрент | qTorrent

% Раздел Тема Автор DL S | L
Зарубежные сериалы [ 23.93 GB ] Снегопад / Snowfall / Сезон: 3 / Серии: 1-10 из 10 [2019 WEBRip 1080p] MVO [IdeaFilm] bober100 Скачать
2 | 1
T Зарубежные сериалы [ 16.5 GB ] Снегопад / Snowfall / Сезон: 3 / Серии: 1-10 из 10 [2019 WEBRip 720p] MVO [IdeaFilm] bober100 Скачать
3 | 0
Зарубежные сериалы [ 5.97 GB ] Снегопад / Snowfall / Сезон: 3 / Серии: 1-8 из 10 [2019 WEB-DLRip] MVO [TVShows] bober100 Скачать
1 | 0
Зарубежные сериалы [ 35.61 GB ] Снегопад / Snowfall / Сезон: 3 / Серия: 1-10 из 10 [2019 WEB-DL 1080p] [MVO] killermax2013 Скачать
1 | 1
Зарубежные сериалы [ 7.87 GB ] Снегопад / Snowfall / Сезон: 3 / Серии: 1-9 из 10 [2019 WEB-DLRip] [MVO] killermax2013 Скачать
1 | 0
Зарубежные сериалы [ 9 GB ] Снегопад / Snowfall / Сезон: 3 / Серия: 1-10 из 10 [2019 WEB-DLRip] [MVO] killermax2013 Скачать
1 | 0
Зарубежные сериалы [ 11.95 GB ] Снегопад / Snowfall / Сезон: 3 / Серия: 1-6 из 10 [2019 WEB-DL 720p] [MVO] + [DVO] killermax2013 Скачать
2 | 0


>> Регистрируемся здесь <<






Отзывы и комментарии о схеме читаем и пишем здесь: ---> Отзывы и комментарии о схеме

Новые благодарочки в телеграм довольных пользователей:
скриншот   скриншот   скриншот   скриншот   скриншот
    Дорогой пользователь! Огромная просьба, поблагодарите релизера, оцените раздачу и оставьте свои комментарий, если Вы скачали Снегопад через торрент бесплатно! Внесите свою лепту в развитие PiratBit!
    Комментировать посты могут только пользователи прошедшие не сложную регистрацию
    Показать сообщения:    

    Снегопад через торрент
    Скачать бесплатно Снегопад
    Снегопад скачать торрент
    Снегопад смотреть онлайн
    Cкачать фильм Снегопад бесплатно
    Снегопад скачать торрент в хорошем качестве
    Снегопад смотреть онлайн бесплатно в хорошем качестве


    Вы не можете начинать темы
    Вы не можете отвечать на сообщения
    Вы не можете редактировать свои сообщения
    Вы не можете удалять свои сообщения
    Вы не можете голосовать в опросах
    Вы не можете прикреплять файлы к сообщениям
    Вы можете скачивать файлы