Ссылка на приватное зеркало всего за 1$. Внимание количество ограничено!!!

iTunes

1+1

iTunes

мы

MV0

1

WEB-DLRip

Джокер

Пифагор

Ведьмак / The Witcher сериал

iTunes

ПШазам

iTunes

Оно 2

iTunes

30
pack

Вам бонус

ВАЖНО

!!Акция!!

Alien_RageХит недели

RePack

Resident Evil 21

ИГРА 18+

pack

RePack

jed

!!Акция!!

Alien_Rage

RePack

fifa19

RePack

Assassins Creed: Odyssey

RePack

NEED FOR SPEED™ PAYBACK

4 сезон

9 сезон

Бесстыжие 9 сезон

Все сериалы

все сериалы на PB.wtf

RePack

FAR CRY 5
  

Малышка зомби / Zombi Child (Бертран Бонелло) [2019, Фэнтези, WEB-DL 720p] MVO [iTunes] freegat.top

Малышка зомби через торрент freegat.top

Раздают: 9 [ 86 KB/s ] Качают: 1 [ 148 KB/s ]
Размер: 3.23 GB | Добавлен: 1 мес. 6 д. назад | Торрент скачан:50 раз
Скачать  

31-08-2019 08:09 Малышка зомби Скачать торрент  

Малышка зомби | Zombi Child
Год выпуска: 2019
Страна: Франция
Жанр: Фэнтези
Продолжительность: 01:42:57
Перевод: Профессиональный многоголосый | iTunes
Субтитры: Russian (forced, full)

Режиссер: Бертран Бонелло

rating

В ролях: Луиз Лабек, Висланда Луима, Катиана Мильфор, Макенсон Бижу, Адиль Давид, Нинон Франсуа, Матильда Риу, Жинит Попо, Неэми Пьер-Даоме, Саид Эль Алами

Описание: История Клервиуса Нарцисса, самого знаменитого в мире зомби, оживает в рассказе его внучки, которая переезжает в Париж, и, желая произвести впечатление на новых одноклассниц, невольно навлекает силы гаитянской вуду.

Качество: WEB-DL 720p
Формат: MKV

Видео: h.264, 3 957 Кбит/с, 1280x690
Аудио#1: Russian: 48 kHz, AAC, 2/0 (L,R) ch, ~152 kbps avg kbps avg |Многоголосый, iTunes Russia|
Аудио#2: French: 48 kHz, AC3, 3/2 (L,C,R,l,r) + LFE ch, ~384 kbps avg
скриншот  скриншот  скриншот  скриншот  

Общее
Уникальный идентификатор : 137340532127900403696204593508987409475 (0x6752D307F79B6EF034FFA8E90C4B9443)
Полное имя : C:\Zombi.Child.2019.720p.WEB-DL.Rus.Fra.TeamHD.mkv
Формат : Matroska
Версия формата : Version 4
Размер файла : 3,23 Гбайт
Продолжительность : 1 ч. 42 м.
Общий поток : 4495 Кбит/сек
Дата кодирования : UTC 2020-01-21 19:28:46
Программа кодирования : mkvmerge v8.5.1 ('Where you lead I will follow') 64bit
Библиотека кодирования : libebml v1.3.3 + libmatroska v1.4.4

Видео
Идентификатор : 1
Формат : AVC
Формат/Информация : Advanced Video Codec
Профиль формата : High@L3.1
Настройки формата : 2 Ref Frames
Параметр CABAC формата : Нет
Параметр RefFrames формата : 2 кадра
Идентификатор кодека : V_MPEG4/ISO/AVC
Продолжительность : 1 ч. 42 м.
Битрейт : 3957 Кбит/сек
Ширина : 1280 пикселей
Высота : 690 пикселей
Соотношение сторон : 1,85:1
Режим частоты кадров : Постоянный
Частота кадров : 24,000 кадра/сек
Цветовое пространство : YUV
Субдискретизация насыщенности : 4:2:0
Битовая глубина : 8 бит
Тип развёртки : Прогрессивная
Бит/(Пиксели*Кадры) : 0.187
Размер потока : 2,85 Гбайт (88%)
Заголовок : Main Program
Язык : French
Default : Да
Forced : Нет
Цветовой диапазон : Limited
Основные цвета : BT.709
Характеристики трансфера : BT.709
Коэффициенты матрицы : BT.709

Аудио #1
Идентификатор : 2
Формат : AAC LC
Формат/Информация : Advanced Audio Codec Low Complexity
Идентификатор кодека : A_AAC-2
Продолжительность : 1 ч. 42 м.
Битрейт : 152 Кбит/сек
Каналы : 2 канала
ChannelLayout : L R
Частота : 48,0 КГц
Частота кадров : 46,875 кадров/сек (1024 SPF)
Метод сжатия : С потерями
Размер потока : 112 Мбайт (3%)
Заголовок : Russian MVO from iTunes Russia Stereo
Язык : Russian
Default : Да
Forced : Нет

Аудио #2
Идентификатор : 3
Формат : AC-3
Формат/Информация : Audio Coding 3
Коммерческое название : Dolby Digital
Идентификатор кодека : A_AC3
Продолжительность : 1 ч. 42 м.
Вид битрейта : Постоянный
Битрейт : 384 Кбит/сек
Каналы : 6 каналов
ChannelLayout : L R C LFE Ls Rs
Частота : 48,0 КГц
Частота кадров : 31,250 кадров/сек (1536 SPF)
Битовая глубина : 16 бит
Метод сжатия : С потерями
Размер потока : 283 Мбайт (9%)
Заголовок : French DD 5.1
Язык : French
ServiceKind/String : Complete Main
Default : Нет
Forced : Нет

Текст #1
Идентификатор : 4
Формат : UTF-8
Идентификатор кодека : S_TEXT/UTF8
Идентификатор кодека/Информация : UTF-8 Plain Text
Продолжительность : 833 мс.
Битрейт : 854 бит/сек
ElementCount : 1
Размер потока : 89,0 байт (0%)
Заголовок : Russian Forced Subtitle
Язык : Russian
Default : Нет
Forced : Нет

Текст #2
Идентификатор : 5
Формат : UTF-8
Идентификатор кодека : S_TEXT/UTF8
Идентификатор кодека/Информация : UTF-8 Plain Text
Продолжительность : 1 ч. 39 м.
Битрейт : 133 бит/сек
ElementCount : 946
Размер потока : 97,5 Кбайт (0%)
Заголовок : Russian Subtitle
Язык : Russian
Default : Нет
Forced : Нет

Меню
00:00:00.000 : en:Глава 01
00:16:04.500 : en:Глава 02
00:32:13.291 : en:Глава 03
00:52:51.791 : en:Глава 04
01:10:45.499 : en:Глава 05
01:25:12.290 : en:Глава 06

freegat.top



Скачать Малышка зомби через торрент https://a.radikal.ru/a12/1908/93/f140fff9c8cb.jpg Скачать фильм Малышка зомби через торрент бесплантно в хорошем качестве Описание: История Клервиуса Нарцисса, самого знаменитого в мире зомби, оживает в рассказе его внучки, которая переезжает в Париж, и, желая ... 8.5 10 6
Торрент: Зарегистрирован [2020-01-22 04:13] · скачан: 50 раз
Статус: √ проверено
Размер: 3.23 GB
Как cкачать? Как скачать Малышка зомби через торрент | qTorrent

% Раздел Тема Автор DL S | L
Фильмы 2019-2020 [DVDrip, WEB-DLRip, HDrip] (DUB, MVO) [ 746 MB ] Малышка зомби / Zombi Child [2019 WEB-DLRip] MVO bober100 Скачать
2 | 0
Фильмы (WEB-DL 720p, 1080p) [ 5.7 GB ] Малышка зомби / Zombi Child [2019 WEB-DL 1080p] [AMZN] MVO bober100 Скачать
3 | 0
Фильмы 2019-2020 [DVDrip, WEB-DLRip, HDrip] (DUB, MVO) [ 1.46 GB ] Малышка зомби / Zombi Child [2019 WEB-DLRip] MVO bober100 Скачать
4 | 0

28-11-2019 20:33  

Отключить всю рекламу на сайте

    Дорогой пользователь! Огромная просьба, поблагодарите релизера, оцените раздачу и оставьте свои комментарий, если Вы скачали Малышка зомби через торрент бесплатно! Внесите свою лепту в развитие PiratBit!
    Комментировать посты могут только пользователи прошедшие не сложную регистрацию
    Показать сообщения:    

    Малышка зомби через торрент
    Скачать бесплатно Малышка зомби
    Малышка зомби скачать торрент
    Малышка зомби смотреть онлайн
    Cкачать фильм Малышка зомби бесплатно
    Малышка зомби скачать торрент в хорошем качестве
    Малышка зомби смотреть онлайн бесплатно в хорошем качестве


    Вы не можете начинать темы
    Вы не можете отвечать на сообщения
    Вы не можете редактировать свои сообщения
    Вы не можете удалять свои сообщения
    Вы не можете голосовать в опросах
    Вы не можете прикреплять файлы к сообщениям
    Вы можете скачивать файлы