новый адрес пиратбит piratbit
Мега распродажа FORZA HORIZON 4 ULTIMATE+ВСЕ DLC+ОНЛАЙН всего за 499р. 349 руб. (супер цена). Внимание количество ограничено!!!

iTunes

1+1

iTunes

мы

iTunes

1

iTunes

Чернобыль

iTunes

Ральф против интернета

Лицензия

ПШазам

Лицензия

Игра престолов

Лицензия

30
pack

ВАЖНО

!!Акция!!

Alien_RageХит недели

RePack

Resident Evil 21

ИГРА 18+

pack

RePack

Metro:Exodus

!!Акция!!

Alien_Rage

RePack

fifa19

RePack

Assassins Creed: Odyssey

RePack

NEED FOR SPEED™ PAYBACK

3 сезон

9 сезон

Бесстыжие 9 сезон

Все сериалы

все сериалы на PB.wtf

RePack

FAR CRY 5
Ребята, катастрофически не хватает 1900р. для оплаты серверов за Октябрь (всвязи с блокировками трафик упал в 3 раза), 1-2р., выручайте.
  

Сросшиеся / Conjoined (Бразил Джозеф Грисаффи III) [2013 г., ужасы, WEBRip] VO (datynet) freegat.top

Сросшиеся через торрент freegat.top

Размер: 703 MB | Добавлен: 2 мес. 4 д. назад | Торрент скачан:9 раз
Скачать  

07-09-2019 21:01 Сросшиеся Скачать торрент  

Сросшиеся / Conjoined
Год выпуска: 2013

Страна: США

Жанр: Ужасы

Продолжительность: 01:15:57

Перевод: Любительский (одноголосый) - datynet

Режиссер: Бразил Джозеф Грисаффи III

rating

В ролях: Том Лонг, Мишель Эллен Джонс, Кифер Барлоу, Джейк Берд, Сара Гастон, Дэн Брэверман, Ларри Уэйд Каррелл, Дерек Хьюи, Стефан Лопес, Ник В. Николсон, Трой Паркер, Дейдре Стивенс

Описание: Когда одинокий холостяк узнает, что у любви всей его жизни есть сиамский близнец, который, как оказался еще и серийным убийцей, то он должен принять кардинальные и жёсткие меры, чтобы сохранить свою любовную жизнь нетронутой и одновременно уберечь себя от крупных неприятностей.
Качество: WEBRip
Формат: MKV
Видео: MPEG-4 AVC, 1100 Кбит/с, 720x400
Аудио: Русский, MP3, 2 ch, 192 Кбит/с
Видео
Идентификатор : 1
Формат : AVC
Формат/Информация : Advanced Video Codec
Профиль формата : High@L3.1
Настройки формата : CABAC / 5 Ref Frames
Параметр CABAC формата : Да
Параметр RefFrames формата : 5 кадров
Идентификатор кодека : V_MPEG4/ISO/AVC
Продолжительность : 1 ч. 15 м.
Битрейт : 1100 Кбит/сек
Ширина : 720 пикселей
Высота : 400 пикселей
Соотношение сторон : 16:9
Режим частоты кадров : Постоянный
Частота кадров : 23,976 (24000/1001) кадра/сек
Цветовое пространство : YUV
Субдискретизация насыщенности : 4:2:0
Битовая глубина : 8 бит
Тип развёртки : Прогрессивная
Бит/(Пиксели*Кадры) : 0.159
Размер потока : 598 Мбайт (85%)
Библиотека кодирования : x264 core 152 r2851M ba24899
Настройки программы : cabac=1 / ref=5 / deblock=1:-1:-1 / analyse=0x3:0x113 / me=umh / subme=9 / psy=1 / psy_rd=1.00:0.15 / mixed_ref=1 / me_range=16 / chroma_me=1 / trellis=2 / 8x8dct=1 / cqm=0 / deadzone=21,11 / fast_pskip=1 / chroma_qp_offset=-3 / threads=16 / lookahead_threads=1 / sliced_threads=0 / nr=0 / decimate=1 / interlaced=0 / bluray_compat=0 / constrained_intra=0 / bframes=3 / b_pyramid=2 / b_adapt=2 / b_bias=0 / direct=3 / weightb=1 / open_gop=0 / weightp=2 / keyint=250 / keyint_min=23 / scenecut=40 / intra_refresh=0 / rc_lookahead=50 / rc=2pass / mbtree=1 / bitrate=1100 / ratetol=1.0 / qcomp=0.60 / qpmin=0 / qpmax=69 / qpstep=4 / cplxblur=20.0 / qblur=0.5 / ip_ratio=1.40 / aq=1:1.00
Default : Да
Forced : Нет

Аудио
Идентификатор : 2
Формат : MPEG Audio
Версия формата : Version 1
Профиль формата : Layer 3
Настройки формата : Joint stereo
Идентификатор кодека : A_MPEG/L3
Идентификатор кодека/Подсказка : MP3
Продолжительность : 1 ч. 15 м.
Вид битрейта : Постоянный
Битрейт : 192 Кбит/сек
Каналы : 2 канала
Частота : 48,0 КГц
Частота кадров : 41,667 кадра/сек (1152 SPF)
Метод сжатия : С потерями
Размер потока : 104 Мбайт (15%)
Default : Да
Forced : Нет

скриншот  скриншот  скриншот  скриншот  

freegat.top



Скачать Сросшиеся через торрент https://i6.imageban.ru/out/2019/09/07/b0ceeb8dbb524fa66936d96e2f9ac632.png Скачать фильм Сросшиеся через торрент бесплантно в хорошем качестве Описание: Когда одинокий холостяк узнает, что у любви всей его жизни есть сиамский близнец, который, как оказался еще и серийным убийцей, ... 5 10 1
Торрент: Зарегистрирован [2019-09-07 21:01] · скачан: 9 раз
Статус: T временная
Размер: 703 MB
Как cкачать? Как скачать Сросшиеся через торрент | qTorrent


>> Регистрируемся здесь <<






Отзывы и комментарии о схеме читаем и пишем здесь: ---> Отзывы и комментарии о схеме

Новые благодарочки в телеграм довольных пользователей:
скриншот   скриншот   скриншот   скриншот   скриншот

08-09-2019 02:20 Сросшиеся Скачать торрент  

Топик был перенесен из форума Фильмы 2014 (Звук TS, Cam, VO, DVO) в форум Фильмы 2013 (Звук TS, Cam, VO, DVO)


bober100freegat.top



    Дорогой пользователь! Огромная просьба, поблагодарите релизера, оцените раздачу и оставьте свои комментарий, если Вы скачали Сросшиеся через торрент бесплатно! Внесите свою лепту в развитие PiratBit!
    Комментировать посты могут только пользователи прошедшие не сложную регистрацию
    Показать сообщения:    

    Сросшиеся через торрент
    Скачать бесплатно Сросшиеся
    Сросшиеся скачать торрент
    Сросшиеся смотреть онлайн
    Cкачать фильм Сросшиеся бесплатно
    Сросшиеся скачать торрент в хорошем качестве
    Сросшиеся смотреть онлайн бесплатно в хорошем качестве


    Вы не можете начинать темы
    Вы не можете отвечать на сообщения
    Вы не можете редактировать свои сообщения
    Вы не можете удалять свои сообщения
    Вы не можете голосовать в опросах
    Вы не можете прикреплять файлы к сообщениям
    Вы можете скачивать файлы