MEGA SALE -50% FORZA HORIZON 4 ULTIMATE+ВСЕ DLC+ОНЛАЙН всего за 599р. 299 руб. (супер цена). Внимание количество ограничено!!!

iTunes

1+1

iTunes

мы

iTunes

1

iTunes

Чернобыль

iTunes

Ральф против интернета

Лицензия

ПШазам

Лицензия

Игра престолов

Лицензия

30
pack

ВАЖНО

!!Акция!!

Alien_RageХит недели

RePack

Resident Evil 21

ИГРА 18+

pack

RePack

Metro:Exodus

!!Акция!!

Alien_Rage

RePack

fifa19

RePack

Assassins Creed: Odyssey

RePack

NEED FOR SPEED™ PAYBACK

3 сезон

9 сезон

Бесстыжие 9 сезон

Все сериалы

все сериалы на PB.wtf

RePack

FAR CRY 5
Ребята, катастрофически не хватает 7730р. для оплаты серверов за АВГУСТ (всвязи с блокировками трафик упал в 3 раза), 1-2р., выручайте.
  

Мертвые не умирают / The Dead Don't Die (Джим Джармуш) [2019 г., Ужасы, фэнтези, комедия, BDRip] [Лицензия / iTunes] freegat.top

Мертвые не умирают через торрент freegat.top

Раздают: 10 [ 218 KB/s ]
Размер: 746 MB | Добавлен: 8 д. назад | Торрент скачан:58 раз
Скачать  

09-09-2019 19:11 Мертвые не умирают Скачать торрент  

Мертвые не умирают
The Dead Don't Die
Год выпуска: 2019
Страна: США, Швеция
Жанр: Ужасы, фэнтези, комедия
Продолжительность: 01:44:28
Перевод: Дубляж / iTunes
Субтитры: Русские (форс.) - отдельно

Режиссер: Джим Джармуш

Премьера в мире: 14 мая 2019

rating

В ролях: Адам Драйвер, Билл Мюррей, Хлоя Севиньи, Тильда Суинтон, Стив Бушеми, Селена Гомес, Роберт Фицджеральд Диггз, Том Уэйтс, Эстер Балинт, Дэнни Гловер и др

Описание: В захолустном американском городке что-то пошло не так. День никак не заканчивается, домашние животные убегают в лес, телефоны не работают, а по радио играет одна и та же песня....

Качество: BDRip
Формат: AVI
Видео кодек: XviD
Аудио кодек: MP3
Видео: 656x368 (1.78:1), 23.976 fps, XviD build 73 ~861 kbps avg, 0.15 bit/pixel
Аудио#1: 48 kHz, MPEG Layer 3, 2 ch, ~128.00 kbps avg
Релиз от: &
General
Complete name : D:\Мертвые не умирают.2019.BDRip by ExKinoRay & Shkiper.avi
Format : AVI
Format/Info : Audio Video Interleave
File size : 746 MiB
Duration : 1 h 44 min
Overall bit rate : 998 kb/s
Writing application : VirtualDubMod 1.5.10.3 | www.virtualdub-fr.org || (build 2550/release)
Writing library : VirtualDubMod build 2550/release

Video
ID : 0
Format : MPEG-4 Visual
Format profile : Advanced Simple@L5
Format settings : BVOP1 / Custom Matrix
Format settings, BVOP : 1
Format settings, QPel : No
Format settings, GMC : No warppoints
Format settings, Matrix : Custom
Codec ID : XVID
Codec ID/Hint : XviD
Duration : 1 h 44 min
Bit rate : 861 kb/s
Width : 656 pixels
Height : 368 pixels
Display aspect ratio : 16:9
Frame rate : 23.976 (24000/1001) FPS
Color space : YUV
Chroma subsampling : 4:2:0
Bit depth : 8 bits
Scan type : Progressive
Compression mode : Lossy
Bits/(Pixel*Frame) : 0.149
Stream size : 643 MiB (86%)
Writing library : XviD 73

Audio
ID : 1
Format : MPEG Audio
Format version : Version 1
Format profile : Layer 3
Codec ID : 55
Codec ID/Hint : MP3
Duration : 1 h 44 min
Bit rate mode : Constant
Bit rate : 128 kb/s
Channel(s) : 2 channels
Sampling rate : 48.0 kHz
Frame rate : 41.667 FPS (1152 SPF)
Compression mode : Lossy
Stream size : 95.6 MiB (13%)
Alignment : Aligned on interleaves
Interleave, duration : 42 ms (1.00 video frame)
Interleave, preload duratio : 504 ms
Writing library : LAME3.99r
Encoding settings : -m s -V 4 -q 2 -lowpass 17 -b 128

freegat.top



Скачать Мертвые не умирают через торрент https://img15.lostpic.net/2019/09/09/136903ac2484829211be187f8c7d7dd0.jpg Скачать фильм Мертвые не умирают через торрент бесплантно в хорошем качестве Описание: В захолустном американском городке что-то пошло не так. День никак не заканчивается, домашние животные убегают в лес, телефоны не ... 4.6 10 5
Info! Золотая раздача, скачанное не засчитывается.
Торрент: Зарегистрирован [2019-09-09 19:11] · скачан: 58 раз
Статус: √ проверено
Размер: 746 MB
Как cкачать? Как скачать Мертвые не умирают через торрент | qTorrent


>> Регистрируемся здесь <<






Отзывы и комментарии о схеме читаем и пишем здесь: ---> Отзывы и комментарии о схеме

Новые благодарочки в телеграм довольных пользователей:
скриншот   скриншот   скриншот   скриншот   скриншот

09-09-2019 20:02 Мертвые не умирают Скачать торрент  

жуткое говнищеfreegat.top



    Дорогой пользователь! Огромная просьба, поблагодарите релизера, оцените раздачу и оставьте свои комментарий, если Вы скачали Мертвые не умирают через торрент бесплатно! Внесите свою лепту в развитие PiratBit!
    Комментировать посты могут только пользователи прошедшие не сложную регистрацию
    Показать сообщения:    

    Мертвые не умирают через торрент
    Скачать бесплатно Мертвые не умирают
    Мертвые не умирают скачать торрент
    Мертвые не умирают смотреть онлайн
    Cкачать фильм Мертвые не умирают бесплатно
    Мертвые не умирают скачать торрент в хорошем качестве
    Мертвые не умирают смотреть онлайн бесплатно в хорошем качестве


    Вы не можете начинать темы
    Вы не можете отвечать на сообщения
    Вы не можете редактировать свои сообщения
    Вы не можете удалять свои сообщения
    Вы не можете голосовать в опросах
    Вы не можете прикреплять файлы к сообщениям
    Вы можете скачивать файлы