MEGA SALE -50% FORZA HORIZON 4 ULTIMATE+ВСЕ DLC+ОНЛАЙН всего за 599р. 299 руб. (супер цена). Внимание количество ограничено!!!

iTunes

1+1

iTunes

мы

iTunes

1

iTunes

Чернобыль

iTunes

Ральф против интернета

Лицензия

ПШазам

Лицензия

Игра престолов

Лицензия

30
pack

ВАЖНО

!!Акция!!

Alien_RageХит недели

RePack

Resident Evil 21

ИГРА 18+

pack

RePack

Metro:Exodus

!!Акция!!

Alien_Rage

RePack

fifa19

RePack

Assassins Creed: Odyssey

RePack

NEED FOR SPEED™ PAYBACK

3 сезон

9 сезон

Бесстыжие 9 сезон

Все сериалы

все сериалы на PB.wtf

RePack

FAR CRY 5
Ребята, катастрофически не хватает 7730р. для оплаты серверов за АВГУСТ (всвязи с блокировками трафик упал в 3 раза), 1-2р., выручайте.
  

Ученица / Практикантка / L'Allieva / Сезон: 1 / Серии: 1-12 из 12 (Лука Рибуоли) [2016, Детектив, комедия, криминал, WEB-DL 1080p] [MVO] (Showjet) freegat.top

Ученица через торрент freegat.top

Размер: 22.98 GB | Добавлен: 7 д. назад | Торрент скачан:7 раз
Скачать  

10-09-2019 20:13 Ученица Скачать торрент  

Ученица / Практикантка / L'Allieva / The Good Apprentice
Год выпуска: 2016
Страна: Италия
Жанр: Детектив, комедия, криминал
Продолжительность: ~00:54:00
Перевод: Профессиональный (многоголосый закадровый) | Showjet

Субтитры: Русские (Showjet), Английские
Реклама: Отсутствует
Режиссёр: Лука Рибуоли
В ролях: Алессандра Мастронарди, Лино Гуанчале, Дарио Айта, Микеле Ди Мауро, Франческа Агостини, Пьерпаоло Споллон, Дзюн Итикава, Кьяра Масталли, Мартина Стелла, Рэй Лавлок, Эммануэле Айта, Франческо Прокопио, Фабрицио Канильо, Марция Убалди …
Описание: Аличе Аллеви — студентка последнего курса медицинского университета, которая на пороге выпускных экзаменов осознала, что не хочет быть врачом. Семейные неприятности помогают ей принять решение, и Аличе выбирает судебную медицину. Помогая инспектору Каллигарису и его незаменимому помощнику, агенту Визоне, раскрывать преступления и попадая при этом в массу курьёзных ситуаций, Аличе с каждым днём всё больше убеждается в правильности своего выбора. Но если с профессией всё прояснилось, то в личной жизни возникла дилемма.
Качество: WEB-DL 1080p
Контейнер: MKV
Видео: 1920x1080, 25.000 fps, MPEG-4 AVC, ~4486 kbps
Аудио Rus: AC3, 48.0 kHz, 2ch, 192 kbps | Showjet
Аудио Ita: AC3, 48.0 kHz, 2ch, 192 kbps
Формат субтитров: softsub (SRT)
rating

Файлы с онлайн-кинотеатра

    01. Sindrome da cuore sospeso, Part 1
    02. Sindrome da cuore sospeso, Part 1
    03. L'Allieva
    04. Segreti a fior di pelle
    05. Un tuffo al cuore
    06. Per sempre bella
    07. Corno d'Africa
    08. L'Ultimo jogging
    09. Un cuore a metà
    10. Ossa
    11. Un segreto non è per sempre
    12. Quello che non so di te

Общее
Уникальный идентификатор : 143295464661077304183609150581088433883 (0x6BCDB3DF7734A79A1820D4655BFBB6DB)
Полное имя : F:\L'Allieva.S01.1080p.WEB-DL.H.264.Rus.Ita-@EniaHD\L'Allieva.S01E05.1080p.WEB-DL.H.264.Rus.Ita-@EniaHD.mkv
Формат : Matroska
Версия формата : Version 4
Размер файла : 1,74 Гбайт
Продолжительность : 51 м. 15 с.
Общий поток : 4872 Кбит/сек
Название фильма : L'Allieva.S01E05.1080p.WEB-DL.H.264.Rus.Ita-ParovozN@EniaHD
Дата кодирования : UTC 2019-09-10 16:22:41
Программа кодирования : mkvmerge v32.0.0 ('Astral Progressions') 32-bit
Библиотека кодирования : libebml v1.3.7 + libmatroska v1.5.0

Видео
Идентификатор : 1
Формат : AVC
Формат/Информация : Advanced Video Codec
Профиль формата : High@L4
Настройки формата : CABAC / 4 Ref Frames
Параметр CABAC формата : Да
Параметр RefFrames формата : 4 кадра
Идентификатор кодека : V_MPEG4/ISO/AVC
Продолжительность : 51 м. 15 с.
Битрейт : 4486 Кбит/сек
Ширина : 1920 пикселей
Высота : 1080 пикселей
Соотношение сторон : 16:9
Режим частоты кадров : Переменный
Частота кадров : 25,000 кадров/сек
Стандарт вещания : PAL
Цветовое пространство : YUV
Субдискретизация насыщенности : 4:2:0
Битовая глубина : 8 бит
Тип развёртки : Прогрессивная
Бит/(Пиксели*Кадры) : 0.087
Размер потока : 1,61 Гбайт (92%)
Default : Да
Forced : Нет
Цветовой диапазон : Limited
Основные цвета : BT.709
Характеристики трансфера : BT.709
Коэффициенты матрицы : BT.709

Аудио #1
Идентификатор : 2
Формат : AC-3
Формат/Информация : Audio Coding 3
Коммерческое название : Dolby Digital
Идентификатор кодека : A_AC3
Продолжительность : 51 м. 15 с.
Вид битрейта : Постоянный
Битрейт : 192 Кбит/сек
Каналы : 2 канала
Channel layout : L R
Частота : 48,0 КГц
Частота кадров : 31,250 кадров/сек (1536 SPF)
Битовая глубина : 16 бит
Метод сжатия : С потерями
Размер потока : 70,4 Мбайт (4%)
Заголовок : MVO (Showjet)
Язык : Russian
ServiceKind/String : Complete Main
Default : Да
Forced : Нет

Аудио #2
Идентификатор : 3
Формат : AC-3
Формат/Информация : Audio Coding 3
Коммерческое название : Dolby Digital
Идентификатор кодека : A_AC3
Продолжительность : 51 м. 15 с.
Вид битрейта : Постоянный
Битрейт : 192 Кбит/сек
Каналы : 2 канала
Channel layout : L R
Частота : 48,0 КГц
Частота кадров : 31,250 кадров/сек (1536 SPF)
Битовая глубина : 16 бит
Метод сжатия : С потерями
Размер потока : 70,4 Мбайт (4%)
Язык : Italian
ServiceKind/String : Complete Main
Default : Нет
Forced : Нет

Текст #1
Идентификатор : 4
Формат : UTF-8
Идентификатор кодека : S_TEXT/UTF8
Идентификатор кодека/Информация : UTF-8 Plain Text
Продолжительность : 51 м. 4 с.
Битрейт : 100 бит/сек
ElementCount : 801
Размер потока : 37,8 Кбайт (0%)
Заголовок : MVO (Showjet)
Язык : Russian
Default : Нет
Forced : Нет

Текст #2
Идентификатор : 5
Формат : UTF-8
Идентификатор кодека : S_TEXT/UTF8
Идентификатор кодека/Информация : UTF-8 Plain Text
Продолжительность : 50 м. 38 с.
Битрейт : 58 бит/сек
ElementCount : 790
Размер потока : 21,8 Кбайт (0%)
Язык : English
Default : Нет
Forced : Нет

скриншот  скриншот  скриншот  
freegat.top



Скачать Ученица через торрент https://funkyimg.com/i/2WTsB.jpg Скачать фильм Ученица через торрент бесплантно в хорошем качестве Описание: Аличе Аллеви — студентка последнего курса медицинского университета, которая на пороге выпускных экзаменов осознала, что не хочет ... 10 10 2
Торрент: Зарегистрирован [2019-09-10 20:13] · скачан: 7 раз
Статус: √ проверено
Размер: 22.98 GB
Как cкачать? Как скачать Ученица через торрент | qTorrent


>> Регистрируемся здесь <<






Отзывы и комментарии о схеме читаем и пишем здесь: ---> Отзывы и комментарии о схеме

Новые благодарочки в телеграм довольных пользователей:
скриншот   скриншот   скриншот   скриншот   скриншот
    Дорогой пользователь! Огромная просьба, поблагодарите релизера, оцените раздачу и оставьте свои комментарий, если Вы скачали Ученица через торрент бесплатно! Внесите свою лепту в развитие PiratBit!
    Комментировать посты могут только пользователи прошедшие не сложную регистрацию
    Показать сообщения:    

    Ученица через торрент
    Скачать бесплатно Ученица
    Ученица скачать торрент
    Ученица смотреть онлайн
    Cкачать фильм Ученица бесплатно
    Ученица скачать торрент в хорошем качестве
    Ученица смотреть онлайн бесплатно в хорошем качестве


    Вы не можете начинать темы
    Вы не можете отвечать на сообщения
    Вы не можете редактировать свои сообщения
    Вы не можете удалять свои сообщения
    Вы не можете голосовать в опросах
    Вы не можете прикреплять файлы к сообщениям
    Вы можете скачивать файлы