MEGA NEWS Получи личный уникальный адрес сайта и защити себя от блокировок. Внимание количество ограничено!!!

iTunes

1+1

iTunes

мы

iTunes

1

iTunes

Чернобыль

iTunes

Ральф против интернета

Лицензия

ПШазам

Лицензия

Игра престолов

Лицензия

30
pack

ВАЖНО

!!Акция!!

Alien_RageХит недели

RePack

Resident Evil 21

ИГРА 18+

pack

RePack

Metro:Exodus

!!Акция!!

Alien_Rage

RePack

fifa19

RePack

Assassins Creed: Odyssey

RePack

NEED FOR SPEED™ PAYBACK

3 сезон

9 сезон

Бесстыжие 9 сезон

Все сериалы

все сериалы на PB.wtf

RePack

FAR CRY 5
Ребята, катастрофически не хватает 1900р. для оплаты серверов за АВГУСТ (всвязи с блокировками трафик упал в 3 раза), 1-2р., выручайте.
  

Дылды / Сезон: 1 / Серии: 1-13 из 21 (Сергей Сенцов) [2019, Комедия, спорт, WEB-DLRip] freegat.top

Дылды через торрент freegat.top

Раздают: 6 [ 336 KB/s ] Качают: 21 [ 0 KB/s ]
Размер: 4.45 GB | Добавлен: 3 д. назад | Торрент скачан:30 раз
Скачать  

24-09-2019 16:43 Дылды Скачать торрент  

Дылды
Год выпуска: 2019
Страна: Россия
Жанр: Комедия, спорт
Продолжительность: ~ 00:25:00 (Серия)
Субтитры: отсутствуют

Режиссер: Сергей Сенцов



В ролях: Павел Деревянко, Анна Невская, Дарья Урсуляк, Татьяна Орлова, Павел Майков, Анна Антонова, Сергей Рубеко, Ангелина Поплавская, Изабель Эйдлен, Евгения Тремасова, Юлия Макарова (II), Дмитрий Караневский, Степан Девонин, Анатолий Горячев, Марина Коваленко, Александр Андриенко, Николай Лунин (II), Дарья Пицик, Надежда Карпова, Маша Тухарь

Описание: Успешный тренер, сексист и бабник Михаил Ковалёв теряет работу из-за скандального характера и неуважительного отношения к женщинам. Чтобы вернуться в Суперлигу, ему предстоит выиграть чемпионат с провинциальной студенческой женской командой. Помешать ему в этом постараются проректор-перфекционист Ирина и затаившая обиду экс-девушка Наталья.

Качество: WEB-DLRip
Формат: AVI

Видео: 720x400 (16:9), 25.000 fps, XviD, 1685 Kbps, 0.22 bit/pixel
Аудио: 48 kHz, AC3, 2/0 (L,R) ch, 192.00 kbps
скриншот  скриншот  скриншот  скриншот  

General
Complete name : Downloads\Dyldy.2019.WEB-DLRip.25Kuzmich\Dyldy.e01.WEB-DLRip.25Kuzmich.avi
Format : AVI
Format/Info : Audio Video Interleave
File size : 350 MiB
Duration : 25mn 54s
Overall bit rate : 1 886 Kbps
Writing application : VirtualDubMod 1.5.10.3 | www.virtualdub-fr.org || (build 2550/release)
Writing library : VirtualDubMod build 2550/release
Video #0
ID : 0
Format : MPEG-4 Visual
Format profile : Advanced Simple@L5
Format settings, BVOP : 1
Format settings, QPel : No
Format settings, GMC : No warppoints
Format settings, Matrix : Default (MPEG)
Codec ID : XVID
Codec ID/Hint : XviD
Duration : 25mn 54s
Bit rate : 1 685 Kbps
Width : 720 pixels
Height : 400 pixels
Display aspect ratio : 16:9
Frame rate : 25.000 fps
Color space : YUV
Chroma subsampling : 4:2:0
Bit depth : 8 bits
Scan type : Progressive
Compression mode : Lossy
Bits/(Pixel*Frame) : 0.234
Stream size : 312 MiB (89%)
Writing library : XviD 73
Audio #1
ID : 1
Format : AC-3
Format/Info : Audio Coding 3
Mode extension : CM (complete main)
Format settings, Endianness : Big
Codec ID : 2000
Duration : 25mn 54s
Bit rate mode : Constant
Bit rate : 192 Kbps
Channel(s) : 2 channels
Channel positions : Front: L R
Sampling rate : 48.0 KHz
Bit depth : 16 bits
Compression mode : Lossy
Stream size : 35.6 MiB (10%)
Alignment : Split accross interleaves
Interleave, duration : 40 ms (1.00 video frame)
Interleave, preload duration : 500 ms

Внимание! Раздача ведётся путём добавления новых серий; при каждом добавлении создаётся новый торрент.
Чтобы начать докачку новой серии, пользователям необходимо сделать следующее:
1. Остановить скачивание;
2. Удалить старый торрент у себя из клиента (старые серии удалять не надо);
3. Скачать новый торрент и запустить его у себя в клиенте вместо старого, при этом указать клиенту путь в старую папку куда и должно происходить скачивание новых серий. Ваш клиент при этом должен произвести хеширование (проверку) старой папки и будет докачивать только те серии, которых у вас ещё нет. Старые серии при этом не удаляются, а продолжают раздаваться! Eсли вы уже удалили старые серии, то предотвратить повторную закачку старых серий можно, отжав галочку в соответствующих местах при запуске нового торрента.
freegat.top



Скачать Дылды через торрент https://img16.lostpic.net/2019/09/24/9bcff80dc828ae4f0d1e8d3b1bc92f8d.jpg Скачать фильм Дылды через торрент бесплантно в хорошем качестве Описание: Успешный тренер, сексист и бабник Михаил Ковалёв теряет работу из-за скандального характера и неуважительного отношения к ... 9.9 10 15
Торрент: Зарегистрирован [2019-10-17 16:39] · скачан: 30 раз
Статус: √ проверено
Размер: 4.45 GB
Как cкачать? Как скачать Дылды через торрент | qTorrent

% Раздел Тема Автор DL S | L
Наши сериалы [ 3.92 GB ] Дылды / Сезон: 1 / Серии: 1-13 из 21 [2019 WEB-DLRip-AVC] bober100 Скачать
12 | 4
Наши сериалы [ 11.37 GB ] Дылды / Сезон: 1 / Серии: 1-13 из 21 [2019 WEB-DL 1080p] bober100 Скачать
18 | 28
Наши сериалы [ 7.39 GB ] Дылды / Сезон: 1 / Серии: 1-13 из 21 [2019 WEB-DL 720p] bober100 Скачать
5 | 16


Последний раз редактировалось: bober100 (2019-09-24 17:55), всего редактировалось 1 раз


>> Регистрируемся здесь <<






Отзывы и комментарии о схеме читаем и пишем здесь: ---> Отзывы и комментарии о схеме

Новые благодарочки в телеграм довольных пользователей:
скриншот   скриншот   скриншот   скриншот   скриншот

17-10-2019 18:54 Дылды Скачать торрент  

спс!!!!!!!!!!!!!!!freegat.top



    Дорогой пользователь! Огромная просьба, поблагодарите релизера, оцените раздачу и оставьте свои комментарий, если Вы скачали Дылды через торрент бесплатно! Внесите свою лепту в развитие PiratBit!
    Комментировать посты могут только пользователи прошедшие не сложную регистрацию
    Показать сообщения:    

    Дылды через торрент
    Скачать бесплатно Дылды
    Дылды скачать торрент
    Дылды смотреть онлайн
    Cкачать фильм Дылды бесплатно
    Дылды скачать торрент в хорошем качестве
    Дылды смотреть онлайн бесплатно в хорошем качестве


    Вы не можете начинать темы
    Вы не можете отвечать на сообщения
    Вы не можете редактировать свои сообщения
    Вы не можете удалять свои сообщения
    Вы не можете голосовать в опросах
    Вы не можете прикреплять файлы к сообщениям
    Вы можете скачивать файлы