MEGA NEWS Получи личный уникальный адрес сайта и защити себя от блокировок. Внимание количество ограничено!!!

iTunes

1+1

iTunes

мы

iTunes

1

iTunes

Чернобыль

iTunes

Ральф против интернета

Лицензия

ПШазам

Лицензия

Игра престолов

Лицензия

30
pack

ВАЖНО

!!Акция!!

Alien_RageХит недели

RePack

Resident Evil 21

ИГРА 18+

pack

RePack

Metro:Exodus

!!Акция!!

Alien_Rage

RePack

fifa19

RePack

Assassins Creed: Odyssey

RePack

NEED FOR SPEED™ PAYBACK

3 сезон

9 сезон

Бесстыжие 9 сезон

Все сериалы

все сериалы на PB.wtf

RePack

FAR CRY 5
Ребята, катастрофически не хватает 1900р. для оплаты серверов за АВГУСТ (всвязи с блокировками трафик упал в 3 раза), 1-2р., выручайте.
  

Дылды / Сезон: 1 / Серии: 1-10 из 21 (Сергей Сенцов) [2019, Комедия, спорт, WEB-DL 720p] freegat.top

Дылды через торрент freegat.top

Раздают: 1 [ 294 KB/s ] Качают: 6 [ 0 KB/s ]
Размер: 5.61 GB | Добавлен: 19 ч. назад | Торрент скачан:8 раз
Скачать  

24-09-2019 16:43 Дылды Скачать торрент  

Дылды
Год выпуска: 2019
Страна: Россия
Жанр: Комедия, спорт
Продолжительность: ~ 00:25:00 (Серия)
Субтитры: отсутствуют

Режиссер: Сергей Сенцов



В ролях: Павел Деревянко, Анна Невская, Дарья Урсуляк, Татьяна Орлова, Павел Майков, Анна Антонова, Сергей Рубеко, Ангелина Поплавская, Изабель Эйдлен, Евгения Тремасова, Юлия Макарова (II), Дмитрий Караневский, Степан Девонин, Анатолий Горячев, Марина Коваленко, Александр Андриенко, Николай Лунин (II), Дарья Пицик, Надежда Карпова, Маша Тухарь

Описание: Успешный тренер, сексист и бабник Михаил Ковалёв теряет работу из-за скандального характера и неуважительного отношения к женщинам. Чтобы вернуться в Суперлигу, ему предстоит выиграть чемпионат с провинциальной студенческой женской командой. Помешать ему в этом постараются проректор-перфекционист Ирина и затаившая обиду экс-девушка Наталья.

Качество: WEB-DL 720p
Формат: MKV

Видео: MPEG-4 AVC, ~ 2985 Кбит/с, 1280x720
Аудио: 48 kHz, AC3 Dolby Digital, 2 ch, 192 Kbps
скриншот  скриншот  скриншот  скриншот  скриншот  

General

Complete name : Downloads\Dyldy.2019.WEB-DL.(720p).Getty\Dyldy.s01e01.2019.WEB-DL.(720p).Getty.mkv
Format : Matroska
Format version : Version 4 / Version 2
File size : 592 MiB
Duration : 26mn 3s
Overall bit rate mode : Variable
Overall bit rate : 3 178 Kbps
Encoded date : UTC 2019-09-24 15:57:36
Writing application : mkvmerge v36.0.0 ('Is That Jazz?') 64-bit
Writing library : libebml v1.3.9 + libmatroska v1.5.2
DURATION : 00:26:03.328000000
NUMBER_OF_FRAMES : 48854
NUMBER_OF_BYTES : 37519872
_STATISTICS_WRITING_APP : mkvmerge v36.0.0 ('Is That Jazz?') 64-bit
_STATISTICS_WRITING_DATE_UTC : 2019-09-24 15:57:36
_STATISTICS_TAGS : BPS DURATION NUMBER_OF_FRAMES NUMBER_OF_BYTES
Video #1
ID : 1
Format : AVC
Format/Info : Advanced Video Codec
Format profile : High@L4.1
Format settings, CABAC : Yes
Format settings, ReFrames : 5 frames
Format settings, GOP : M=4, N=50
Codec ID : V_MPEG4/ISO/AVC
Duration : 26mn 3s
Bit rate mode : Variable
Bit rate : 2 923 Kbps
Maximum bit rate : 40.0 Mbps
Width : 1 280 pixels
Height : 720 pixels
Display aspect ratio : 16:9
Frame rate mode : Constant
Frame rate : 25.000 fps
Color space : YUV
Chroma subsampling : 4:2:0
Bit depth : 8 bits
Scan type : Progressive
Bits/(Pixel*Frame) : 0.127
Stream size : 545 MiB (92%)
Language : Russian
Default : Yes
Forced : No
Color primaries : BT.709
Transfer characteristics : BT.709
Matrix coefficients : BT.709
Color range : Limited
Audio #2
ID : 2
Format : AC-3
Format/Info : Audio Coding 3
Mode extension : CM (complete main)
Format settings, Endianness : Big
Codec ID : A_AC3
Duration : 26mn 3s
Bit rate mode : Constant
Bit rate : 192 Kbps
Channel(s) : 2 channels
Channel positions : Front: L R
Sampling rate : 48.0 KHz
Bit depth : 16 bits
Compression mode : Lossy
Stream size : 35.8 MiB (6%)
Language : Russian
Default : Yes
Forced : No

Внимание! Раздача ведётся путём добавления новых серий; при каждом добавлении создаётся новый торрент.
Чтобы начать докачку новой серии, пользователям необходимо сделать следующее:
1. Остановить скачивание;
2. Удалить старый торрент у себя из клиента (старые серии удалять не надо);
3. Скачать новый торрент и запустить его у себя в клиенте вместо старого, при этом указать клиенту путь в старую папку куда и должно происходить скачивание новых серий. Ваш клиент при этом должен произвести хеширование (проверку) старой папки и будет докачивать только те серии, которых у вас ещё нет. Старые серии при этом не удаляются, а продолжают раздаваться! Eсли вы уже удалили старые серии, то предотвратить повторную закачку старых серий можно, отжав галочку в соответствующих местах при запуске нового торрента.
freegat.top



Скачать Дылды через торрент https://img16.lostpic.net/2019/09/24/9bcff80dc828ae4f0d1e8d3b1bc92f8d.jpg Скачать фильм Дылды через торрент бесплантно в хорошем качестве Описание: Успешный тренер, сексист и бабник Михаил Ковалёв теряет работу из-за скандального характера и неуважительного отношения к ... 10 10 4
Торрент: Зарегистрирован [2019-10-14 16:53] · скачан: 8 раз
Статус: √ проверено
Размер: 5.61 GB
Как cкачать? Как скачать Дылды через торрент | qTorrent

% Раздел Тема Автор DL S | L
Наши сериалы [ 3.02 GB ] Дылды / Сезон: 1 / Серии: 1-10 из 21 [2019 WEB-DLRip-AVC] bober100 Скачать
13 | 26
Наши сериалы [ 8.74 GB ] Дылды / Сезон: 1 / Серии: 1-10 из 21 [2019 WEB-DL 1080p] bober100 Скачать
17 | 21
Наши сериалы [ 3.42 GB ] Дылды / Сезон: 1 / Серии: 1-10 из 21 [2019 WEB-DLRip] bober100 Скачать
6 | 14


>> Регистрируемся здесь <<






Отзывы и комментарии о схеме читаем и пишем здесь: ---> Отзывы и комментарии о схеме

Новые благодарочки в телеграм довольных пользователей:
скриншот   скриншот   скриншот   скриншот   скриншот
    Дорогой пользователь! Огромная просьба, поблагодарите релизера, оцените раздачу и оставьте свои комментарий, если Вы скачали Дылды через торрент бесплатно! Внесите свою лепту в развитие PiratBit!
    Комментировать посты могут только пользователи прошедшие не сложную регистрацию
    Показать сообщения:    

    Дылды через торрент
    Скачать бесплатно Дылды
    Дылды скачать торрент
    Дылды смотреть онлайн
    Cкачать фильм Дылды бесплатно
    Дылды скачать торрент в хорошем качестве
    Дылды смотреть онлайн бесплатно в хорошем качестве


    Вы не можете начинать темы
    Вы не можете отвечать на сообщения
    Вы не можете редактировать свои сообщения
    Вы не можете удалять свои сообщения
    Вы не можете голосовать в опросах
    Вы не можете прикреплять файлы к сообщениям
    Вы можете скачивать файлы