MEGA NEWS Получи личный уникальный адрес сайта и защити себя от блокировок. Внимание количество ограничено!!!

iTunes

1+1

iTunes

мы

iTunes

1

iTunes

Чернобыль

iTunes

Ральф против интернета

Лицензия

ПШазам

Лицензия

Игра престолов

Лицензия

30
pack

ВАЖНО

!!Акция!!

Alien_RageХит недели

RePack

Resident Evil 21

ИГРА 18+

pack

RePack

Metro:Exodus

!!Акция!!

Alien_Rage

RePack

fifa19

RePack

Assassins Creed: Odyssey

RePack

NEED FOR SPEED™ PAYBACK

3 сезон

9 сезон

Бесстыжие 9 сезон

Все сериалы

все сериалы на PB.wtf

RePack

FAR CRY 5
Ребята, катастрофически не хватает 1900р. для оплаты серверов за АВГУСТ (всвязи с блокировками трафик упал в 3 раза), 1-2р., выручайте.
  

Триада / Сезон: 1 / Серии: 1-11 из 16 (Дмитрий Дьяченко) [2019, Комедия, WEB-DLRip-AVC] freegat.top

Триада через торрент freegat.top

Раздают: 1 [ 98 KB/s ] Качают: 2 [ 0 KB/s ]
Размер: 5.21 GB | Добавлен: 18 ч. назад | Торрент скачан:0 раз
Скачать  

30-09-2019 17:15 Триада Скачать торрент  

Триада
Год выпуска: 2019
Страна: Россия
Жанр: Комедия
Продолжительность: ~ 00:25:00 (Серия)
Перевод: Не требуется
Субтитры: отсутствуют

Режиссер: Дмитрий Дьяченко

rating

В ролях: Борис Дергачёв, Дарья Мороз, Любовь Аксёнова, Анастасия Калашникова, Александр Пташенчук, Инга Оболдина, Кирилл Полухин, Тимофей Трибунцев, Владислав Ветров, Елена Шевченко

Описание: Толя никак не может выбрать между любовницей и женой, с которой у них много лет не получается родить ребенка. Лучший друг советует ему переспать с танцовщицей в клубе и понять, перед какой из любящих женщин ему будет стыдно. Толя решает последовать совету… и через несколько недель все три женщины сообщают Толе, что у него будет ребенок… Ну то есть три ребенка… Одновременно! Вместо того чтобы провалиться сквозь землю, Толя принимает ответственное, но очень спорное решение. Несмотря ни на что он хочет остаться любящим отцом для каждого из троих детей. Поэтому Толя собирает всю триаду и объявляет, что все три матери должны непременно жить вместе с ним под одной крышей.

Качество: WEB-DLRip-AVC
Формат: MKV

Видео: 1024х576 (16:9), 25 fps, AVC MPEG-4 (x264), High@L4.1 ~ 2500 kbps avg, 0.170 bit/pixel
Аудио: AC3, 48.0 kHz, 2/0 (L,R) ch, 192 kbps
скриншот  скриншот  скриншот  скриншот  

Общее
Уникальный идентификатор : 236475119900365442992280911664453079069 (0xB1E77392597EF3AE80922A9695BD501D)
Полное имя : G:Triada.2019.WEB-DLRip.(AVC).ExKinoRayTriada.(01.seriya).2019.WEB-DLRip.(AVC).ExKinoRay.mkv
Формат : Matroska
Версия формата : Version 2
Размер файла : 539 Мбайт
Продолжительность : 27 м. 58 с.
Общий поток : 2694 Кбит/сек
Дата кодирования : UTC 2019-09-29 16:54:54
Программа кодирования : mkvmerge v7.8.0 ('River Man') 32bit built on Apr 3 2015 12:11:22
Библиотека кодирования : libebml v1.3.1 + libmatroska v1.4.2

Видео
Идентификатор : 1
Формат : AVC
Формат/Информация : Advanced Video Codec
Профиль формата : High@L4.1
Настройки формата : CABAC / 10 Ref Frames
Параметр CABAC формата : Да
Параметр RefFrames формата : 10 кадров
Идентификатор кодека : V_MPEG4/ISO/AVC
Продолжительность : 27 м. 58 с.
Битрейт : 2500 Кбит/сек
Ширина : 1024 пикселя
Высота : 576 пикселей
Соотношение сторон : 16:9
Режим частоты кадров : Постоянный
Частота кадров : 25,000 кадров/сек
Цветовое пространство : YUV
Субдискретизация насыщенности : 4:2:0
Битовая глубина : 8 бит
Тип развёртки : Прогрессивная
Бит/(Пиксели*Кадры) : 0.170
Размер потока : 490 Мбайт (91%)
Библиотека кодирования : x264 core 146 r2538 121396c
Настройки программы : cabac=1 / ref=10 / deblock=1:-3:-3 / analyse=0x3:0x113 / me=umh / subme=11 / psy=1 / psy_rd=1.00:0.20 / mixed_ref=1 / me_range=32 / chroma_me=1 / trellis=2 / 8x8dct=1 / cqm=0 / deadzone=21,11 / fast_pskip=1 / chroma_qp_offset=-3 / threads=24 / lookahead_threads=9 / sliced_threads=0 / nr=0 / decimate=0 / interlaced=0 / bluray_compat=0 / constrained_intra=0 / bframes=12 / b_pyramid=2 / b_adapt=2 / b_bias=0 / direct=3 / weightb=1 / open_gop=0 / weightp=2 / keyint=250 / keyint_min=25 / scenecut=40 / intra_refresh=0 / rc_lookahead=60 / rc=2pass / mbtree=1 / bitrate=2500 / ratetol=1.0 / qcomp=0.60 / qpmin=0 / qpmax=69 / qpstep=4 / cplxblur=20.0 / qblur=0.5 / vbv_maxrate=14000 / vbv_bufsize=14000 / nal_hrd=none / filler=0 / ip_ratio=1.40 / aq=3:1.40
Default : Да
Forced : Нет
Цветовой диапазон : Limited
Основные цвета : BT.709
Характеристики трансфера : BT.709
Коэффициенты матрицы : BT.709

Аудио
Идентификатор : 2
Формат : AC-3
Формат/Информация : Audio Coding 3
Идентификатор кодека : A_AC3
Продолжительность : 27 м. 58 с.
Вид битрейта : Постоянный
Битрейт : 192 Кбит/сек
Каналы : 2 канала
Расположение каналов : Front: L R
Частота : 48,0 КГц
Частота кадров : 31,250 кадров/сек (1536 SPF)
Битовая глубина : 16 бит
Метод сжатия : С потерями
Размер потока : 38,4 Мбайт (7%)
Default : Да
Forced : Нет

При каждом добавлении создаётся новый торрент. Чтобы начать докачку новой серии, пользователям необходимо сделать следующее:
- остановить скачивание;
- удалить старый торрент у себя из клиента (старые серии удалять не надо);
- скачать новый торрент и запустить его у себя в клиенте вместо старого, при этом указать клиенту путь в старую папку, куда и должно происходить скачивание новых серий.
freegat.top



Скачать Триада через торрент https://img15.lostpic.net/2019/09/30/a709a8d8bb92ee0f30ba513688b87526.th.jpg Скачать фильм Триада через торрент бесплантно в хорошем качестве Описание: Толя никак не может выбрать между любовницей и женой, с которой у них много лет не получается родить ребенка. Лучший друг ... 9.5 10 8
Торрент: Зарегистрирован [2019-10-14 17:44] · скачан: 0 раз
Статус: √ проверено
Размер: 5.21 GB
Как cкачать? Как скачать Триада через торрент | qTorrent

% Раздел Тема Автор DL S | L
TNT serials [ 4.14 GB ] Триада / Сезон: 1 / Серии: 1-11 из 16 [2019 HDTVRip-AVC] bober100 Скачать
65 | 644
TNT serials [ 3.4 GB ] Триада / Сезон: 1 / Серии: 1-11 из 16 [2019 HDTVRip] bober100 Скачать
1 | 4
TNT serials [ 11.42 GB ] Триада / Сезон: 1 / Серии: 1-11 из 16 [2019 HDTV 1080i] bober100 Скачать
7 | 7
TNT serials [ 8.89 GB ] Триада / Сезон: 1 / Серии: 1-11 из 16 [2019 WEB-DL 1080p] bober100 Скачать
3 | 7
TNT serials [ 3.76 GB ] Триада / Сезон: 1 / Серии: 1-11 из 16 [2019 WEB-DLRip] bober100 Скачать
4 | 3
TNT serials [ 5.3 GB ] Триада / Сезон: 1 / Серии: 1-11 из 16 [2019 WEB-DL 720p] bober100 Скачать
5 | 6


>> Регистрируемся здесь <<






Отзывы и комментарии о схеме читаем и пишем здесь: ---> Отзывы и комментарии о схеме

Новые благодарочки в телеграм довольных пользователей:
скриншот   скриншот   скриншот   скриншот   скриншот
    Дорогой пользователь! Огромная просьба, поблагодарите релизера, оцените раздачу и оставьте свои комментарий, если Вы скачали Триада через торрент бесплатно! Внесите свою лепту в развитие PiratBit!
    Комментировать посты могут только пользователи прошедшие не сложную регистрацию
    Показать сообщения:    

    Триада через торрент
    Скачать бесплатно Триада
    Триада скачать торрент
    Триада смотреть онлайн
    Cкачать фильм Триада бесплатно
    Триада скачать торрент в хорошем качестве
    Триада смотреть онлайн бесплатно в хорошем качестве


    Вы не можете начинать темы
    Вы не можете отвечать на сообщения
    Вы не можете редактировать свои сообщения
    Вы не можете удалять свои сообщения
    Вы не можете голосовать в опросах
    Вы не можете прикреплять файлы к сообщениям
    Вы можете скачивать файлы