Ссылка на приватное зеркало всего за 1$. Внимание количество ограничено!!!

iTunes

1+1

iTunes

мы

WEB-DL

1

iTunes

Чернобыль

iTunes

Ральф против интернета

Лицензия

ПШазам

Лицензия

Оно 2

Лицензия

30
pack

Вам бонус

ВАЖНО

!!Акция!!

Alien_RageХит недели

RePack

Resident Evil 21

ИГРА 18+

pack

RePack

jed

!!Акция!!

Alien_Rage

RePack

fifa19

RePack

Assassins Creed: Odyssey

RePack

NEED FOR SPEED™ PAYBACK

3 сезон

9 сезон

Бесстыжие 9 сезон

Все сериалы

все сериалы на PB.wtf

RePack

FAR CRY 5
Ребята, катастрофически не хватает 1900р. для оплаты серверов за Октябрь (всвязи с блокировками трафик упал в 3 раза), 1-2р., выручайте.
  

Сестренка (Александр Галибин) [2019 г., драма, военный, TS 720p] freegat.top

Сестренка через торрент freegat.top

Раздают: 1 [ 0 KB/s ]
Размер: 2.56 GB | Добавлен: 2 мес. 6 д. назад | Торрент скачан:72 раза
Скачать  

06-10-2019 14:57 Сестренка Скачать торрент  

Сестренка
Год выпуска: 2019
Страна: Россия
Жанр: драма, военный
Продолжительность: 01:31:06
Режиссер: Александр Галибин

В ролях: Арслан Крымчурин, Марта Тимофеева, Юсуф Рахметов, Ильгиза Гильманова, Сулпан Абдрахимова, Рауис Загитов, Виталий Салий, Нажиба Искандарова, Руслан Хайсаров, Гульназ Хайсарова
Описание: Сколько себя помнит Ямиль, война была всегда. Но Ямиль очень ждёт, когда она кончится - ведь тогда вернётся Отец, которого Ямиль знает только по фотографиям и письмам.
Однажды Мама уезжает в далёкий город и привозит с собой молчаливую девочку Оксану и передает наказ Отца заботиться о ней, как о родной сестрёнке...
Доп. информация: Присутствует реклама!
Качество: TS 720p
Формат: MKV
Видео кодек: H.264
Аудио кодек: AAC
Видео: H.264 / 1280x590 / 3646 Кбит/сек / 23,976 fps
Аудио: AAC / 384 Кбит/сек / 2 ch / 48,0 КГц
Семпл






Код:

Уникальный идентификатор                 : 212367667318684020724073330143552942548 (0x9FC486647DB6A502B04EC1686D1D31D4)
Полное имя                               : SesTrenka.2019.O.TS.72Op.mkv
Формат                                   : Matroska
Версия формата                           : Version 2
Размер файла                             : 2,56 Гбайт
Продолжительность                        : 1 ч. 31 м.
Режим общего битрейта                    : Переменный
Общий поток                              : 4029 Кбит/сек
Дата кодирования                         : UTC 2019-09-23 05:00:48
Программа кодирования                    : mkvmerge v8.3.0 ('Over the Horizon') 64bit
Библиотека кодирования                   : libebml v1.3.1 + libmatroska v1.4.2

Видео
Идентификатор                            : 1
Формат                                   : AVC
Формат/Информация                        : Advanced Video Codec
Профиль формата                          : High@L4.1
Настройки формата                        : CABAC / 4 Ref Frames
Параметр CABAC формата                   : Да
Параметр RefFrames формата               : 4 кадра
Идентификатор кодека                     : V_MPEG4/ISO/AVC
Продолжительность                        : 1 ч. 31 м.
Вид битрейта                             : Переменный
Битрейт                                  : 3646 Кбит/сек
Номинальный битрейт                      : 4000 Кбит/сек
Максимальный битрейт                     : 4000 Кбит/сек
Ширина                                   : 1280 пикселей
Высота                                   : 590 пикселей
Соотношение сторон                       : 2,2:1
Режим частоты кадров                     : Постоянный
Частота кадров                           : 23,976 (24000/1001) кадра/сек
Стандарт вещания                         : Component
Цветовое пространство                    : YUV
Субдискретизация насыщенности            : 4:2:0
Битовая глубина                          : 8 бит
Тип развёртки                            : Прогрессивная
Бит/(Пиксели*Кадры)                      : 0.201
Размер потока                            : 2,32 Гбайт (90%)
Библиотека кодирования                   : x264 core 155
Настройки программы                      : cabac=1 / ref=4 / deblock=1:0:0 / analyse=0x3:0x3 / me=dia / subme=1 / psy=1 / psy_rd=1.00:0.00 / mixed_ref=0 / me_range=16 / chroma_me=1 / trellis=0 / 8x8dct=1 / cqm=1 / deadzone=21,11 / fast_pskip=1 / chroma_qp_offset=0 / threads=18 / lookahead_threads=3 / sliced_threads=0 / slices=1 / nr=0 / decimate=1 / interlaced=0 / minigop=0 / stitchable=1 / constrained_intra=0 / bframes=2 / b_pyramid=0 / b_adapt=0 / b_bias=0 / direct=1 / weightb=1 / open_gop=1 / weightp=0 / keyint=240 / keyint_min=23 / scenecut=40 / intra_refresh=0 / rc_lookahead=0 / rc=cbr / mbtree=0 / bitrate=4000 / ratetol=1.0 / qcomp=0.60 / qpmin=1 / qpmax=69 / qpstep=4 / vbv_maxrate=4000 / vbv_bufsize=4000 / nal_hrd=vbr / filler=0 / ip_ratio=1.40 / pb_ratio=1.30 / aq=1:1.00
Default                                  : Да
Forced                                   : Нет
Цветовой диапазон                        : Limited
Основные цвета                           : BT.709
Характеристики трансфера                 : BT.709
Коэффициенты матрицы                     : BT.709

Аудио
Идентификатор                            : 2
Формат                                   : AAC Main
Формат/Информация                        : Advanced Audio Codec
Идентификатор кодека                     : A_AAC-1
Продолжительность                        : 1 ч. 31 м.
Битрейт                                  : 384 Кбит/сек
Каналы                                   : 2 канала
ChannelLayout                            : L R
Частота                                  : 48,0 КГц
Частота кадров                           : 46,875 кадров/сек (1024 SPF)
Метод сжатия                             : С потерями
Размер потока                            : 249 Мбайт (9%)
Default                                  : Да
Forced                                   : Нет


freegat.top



Скачать Сестренка через торрент https://d.radikal.ru/d35/1909/fd/a892df6c8d4a.jpg Скачать фильм Сестренка через торрент бесплантно в хорошем качестве Описание: Сколько себя помнит Ямиль, война была всегда. Но Ямиль очень ждёт, когда она кончится - ведь тогда вернётся Отец, которого Ямиль ... 9.6 10 9
Торрент: Зарегистрирован [2019-10-06 14:57] · скачан: 72 раз
Статус: T временная
Размер: 2.56 GB
Как cкачать? Как скачать Сестренка через торрент | qTorrent

% Раздел Тема Автор DL S | L
Наши новые фильмы 2018-2019 [ 1.73 GB ] Сестренка [2019 военный WEB-DLRip-AVC] - ExKinoRay Enigma2010 Скачать
71 | 0
Наши новые фильмы 2018-2019 [ 1.46 GB ] Сестренка [2019 военный WEB-DLRip] killermax2013 Скачать
9 | 0
Наши фильмы (HD, WEB-DL 720p, 1080p) [ 3.66 GB ] Сестренка [2019 военный WEB-DL 1080p] killermax2013 Скачать
11 | 0
Наши новые фильмы 2018-2019 [ 743 MB ] Сестренка [2019 военный WEB-DLRip] killermax2013 Скачать
2 | 0
Гонзо [ 1.88 GB ] My Sexy Little Sister 7 / Моя Сексуальная Сестренка 7 [2019 18+ Teens Petite Natural Tits Bubble Butts Facial Family Roleplay Face Fucking WEB-DL] (Ashley Red Gabbie Carter Kiara Cole Kiarra Venom Скачать
2 | 2
Порно фильмы без сюжета [ 1.68 GB ] Тугая Киска Моей Сестрёнки 7 / My Sister Has A Tight Pussy 7 [2019 18+ Teens All Sex Family Roleplay WEB-DL] bashai5 Скачать
3 | 0
Гонзо [ 3 GB ] Сестренка Любит Меня 4 / Sis Loves Me 4 [2019 All Sex Oral Gonzo Legal Teen Facial Couples Family Roleplay POV WEB-DLRip] sheker187 Скачать
1 | 0


Последний раз редактировалось: God (2019-10-06 18:42), всего редактировалось 1 раз

28-11-2019 20:33  

Отключить всю рекламу на сайте

14-10-2019 08:26 Сестренка Скачать торрент  

спс за релиз, но качество...звук никакой, графика тоже, жаль, смотреть не смогли...freegat.top



17-10-2019 06:12 Сестренка Скачать торрент  

сурикат писал(а):

спс за релиз, но качество...звук никакой, графика тоже, жаль, смотреть не смогли...

спасибо за камент, думал по скринам и семплу смотреть все же можно, теперь подожду качества получшеfreegat.top



20-10-2019 17:57 Сестренка Скачать торрент  

Топик был перенесен из форума Наши фильмы (мультфильмы) cо спонсором показа (Новинки AVI/MKV) в форум Для поглощённых раздач

Причина переноса: Сестренка
killermax2013freegat.top



20-10-2019 17:58 Сестренка Скачать торрент  

Отличный Фильм! Спасибо!freegat.top



    Дорогой пользователь! Огромная просьба, поблагодарите релизера, оцените раздачу и оставьте свои комментарий, если Вы скачали Сестренка через торрент бесплатно! Внесите свою лепту в развитие PiratBit!
    Комментировать посты могут только пользователи прошедшие не сложную регистрацию
    Показать сообщения:    

    Сестренка через торрент
    Скачать бесплатно Сестренка
    Сестренка скачать торрент
    Сестренка смотреть онлайн
    Cкачать фильм Сестренка бесплатно
    Сестренка скачать торрент в хорошем качестве
    Сестренка смотреть онлайн бесплатно в хорошем качестве


    Вы не можете начинать темы
    Вы не можете отвечать на сообщения
    Вы не можете редактировать свои сообщения
    Вы не можете удалять свои сообщения
    Вы не можете голосовать в опросах
    Вы не можете прикреплять файлы к сообщениям
    Вы можете скачивать файлы