MEGA NEWS Получи личный уникальный адрес сайта и защити себя от блокировок. Внимание количество ограничено!!!

iTunes

1+1

iTunes

мы

iTunes

1

iTunes

Чернобыль

iTunes

Ральф против интернета

Лицензия

ПШазам

Лицензия

Игра престолов

Лицензия

30
pack

ВАЖНО

!!Акция!!

Alien_RageХит недели

RePack

Resident Evil 21

ИГРА 18+

pack

RePack

Metro:Exodus

!!Акция!!

Alien_Rage

RePack

fifa19

RePack

Assassins Creed: Odyssey

RePack

NEED FOR SPEED™ PAYBACK

3 сезон

9 сезон

Бесстыжие 9 сезон

Все сериалы

все сериалы на PB.wtf

RePack

FAR CRY 5
Ребята, катастрофически не хватает 1900р. для оплаты серверов за АВГУСТ (всвязи с блокировками трафик упал в 3 раза), 1-2р., выручайте.
  

Входя в дом, оглянись / Сезон: 1 / Серии: 1-8 из 8 (Андрей Малюков) [2019, Мелодрама, SATRip] freegat.top

Входя в дом, оглянись через торрент freegat.top

Раздают: 6 [ 226 KB/s ] Качают: 3 [ 0 KB/s ]
Размер: 4.69 GB | Добавлен: 4 д. назад | Торрент скачан:19 раз
Скачать  

07-10-2019 12:39 Входя в дом, оглянись Скачать торрент  

Входя в дом, оглянись
Год выпуска: 2019
Страна: Россия
Жанр: Мелодрама
Продолжительность: ~ 00:52:00 серия
Субтитры: отсутствуют

Режиссер: Андрей Малюков



В ролях: Екатерина Гусева, Александр Домогаров, Владимир Гуськов, Кристина Асмус, Анна Уколова, Василий Мищенко, Александр Марушев, Анастасия Дьячук, Вячеслав Ковалёв

Описание: В семье Антонины и Михаила Савостиных — самой богатой в районе — налицо мезальянс. Антонина слишком молода и красива для своего пожилого мужа. Но совместный бизнес и деньги порой привязывают людей крепче самой большой любви. Так бы и жили Савостины, если бы не приехал однажды к ним дальний родственник Артур.

Качество: SATRip
Формат: AVI

Видео: XviD, ~ 1500 Кбит/с, 720x304
Аудио: MP3, 2 ch, 192 Кбит/с
скриншот  скриншот  скриншот  скриншот  

Общее
Полное имя : C:Vkhodya.v.dom.oglyanis.2019.XviD.SATRip.25Kuzmich\Vkhodya.v.dom.oglyanis.e01.XviD.SATRip.25Kuzmich.avi
Формат : AVI
Формат/Информация : Audio Video Interleave
Размер файла : 600 Мбайт
Продолжительность : 49 м. 47 с.
Общий поток : 1686 Кбит/сек
Программа кодирования : VirtualDubMod 1.5.10.3 | www.virtualdub-fr.org || (build 2550/release)
Библиотека кодирования : VirtualDubMod build 2550/release

Видео
Идентификатор : 0
Формат : MPEG-4 Visual
Профиль формата : Advanced Simple@L5
Настройки формата : BVOP1
Параметр BVOP формата : 1
Параметр QPel формата : Нет
Параметр GMC формата : Без точки перехода
Параметр матрицы формата : Default (MPEG)
Идентификатор кодека : XVID
Идентификатор кодека/Подсказка : XviD
Продолжительность : 49 м. 47 с.
Битрейт : 1484 Кбит/сек
Ширина : 720 пикселей
Высота : 304 пикселя
Соотношение сторон : 2,35:1
Частота кадров : 25,000 кадров/сек
Цветовое пространство : YUV
Субдискретизация насыщенности : 4:2:0
Битовая глубина : 8 бит
Тип развёртки : Прогрессивная
Метод сжатия : С потерями
Бит/(Пиксели*Кадры) : 0.271
Размер потока : 528 Мбайт (88%)
Библиотека кодирования : XviD 73

Аудио
Идентификатор : 1
Формат : MPEG Audio
Версия формата : Version 1
Профиль формата : Layer 3
Настройки формата : Joint stereo / MS Stereo
Идентификатор кодека : 55
Идентификатор кодека/Подсказка : MP3
Продолжительность : 49 м. 47 с.
Вид битрейта : Постоянный
Битрейт : 192 Кбит/сек
Каналы : 2 канала
Частота : 48,0 КГц
Частота кадров : 41,667 кадра/сек (1152 SPF)
Метод сжатия : С потерями
Размер потока : 68,4 Мбайт (11%)
Выравнивание : Соединение по промежуткам
Продолжительность промежутка : 40 мс. (1,00 видеокадр)
Время предзагрузки промежутка : 504 мс.
Библиотека кодирования : LAME3.99r
Настройки программы : -m j -V 4 -q 2 -lowpass 18.6 -b 192

При каждом добавлении создаётся новый торрент. Чтобы начать докачку новой серии, пользователям необходимо сделать следующее:
- остановить скачивание;
- удалить старый торрент у себя из клиента (старые серии удалять не надо);
- скачать новый торрент и запустить его у себя в клиенте вместо старого, при этом указать клиенту путь в старую папку, куда и должно происходить скачивание новых серий.
freegat.top



Скачать Входя в дом, оглянись через торрент https://i87.fastpic.ru/big/2019/1007/33/ddccb08264a6f61a7eeb9778fe35cc33.jpg Скачать фильм Входя в дом, оглянись через торрент бесплантно в хорошем качестве Описание: В семье Антонины и Михаила Савостиных — самой богатой в районе — налицо мезальянс. Антонина слишком молода и красива для своего ... 10 10 4
Торрент: Зарегистрирован [2019-10-10 15:26] · скачан: 19 раз
Статус: √ проверено
Размер: 4.69 GB
Как cкачать? Как скачать Входя в дом, оглянись через торрент | qTorrent

% Раздел Тема Автор DL S | L
Наши сериалы [ 5.14 GB ] Входя в дом оглянись / Сезон: 1 / Серии: 1-8 из 8 [2019 Мело WEB-DLRip-AVC] bober100 Скачать
4 | 0
Наши сериалы [ 5.16 GB ] Входя в дом оглянись / Сезон: 1 / Серии: 1-8 из 8 [2019 Мело WEB-DLRip] bober100 Скачать
3 | 0
Наши сериалы [ 10.52 GB ] Входя в дом оглянись / Сезон: 1 / Серии: 1-8 из 8 [2019 Мело HDTVRip 720p] bober100 Скачать
3 | 0
Наши сериалы [ 21.81 GB ] Входя в дом оглянись / Сезон: 1 / Серии: 1-8 из 8 [2019 Мело HDTV 1080i] bober100 Скачать
1 | 0


>> Регистрируемся здесь <<






Отзывы и комментарии о схеме читаем и пишем здесь: ---> Отзывы и комментарии о схеме

Новые благодарочки в телеграм довольных пользователей:
скриншот   скриншот   скриншот   скриншот   скриншот
    Дорогой пользователь! Огромная просьба, поблагодарите релизера, оцените раздачу и оставьте свои комментарий, если Вы скачали Входя в дом, оглянись через торрент бесплатно! Внесите свою лепту в развитие PiratBit!
    Комментировать посты могут только пользователи прошедшие не сложную регистрацию
    Показать сообщения:    

    Входя в дом, оглянись через торрент
    Скачать бесплатно Входя в дом, оглянись
    Входя в дом, оглянись скачать торрент
    Входя в дом, оглянись смотреть онлайн
    Cкачать фильм Входя в дом, оглянись бесплатно
    Входя в дом, оглянись скачать торрент в хорошем качестве
    Входя в дом, оглянись смотреть онлайн бесплатно в хорошем качестве


    Вы не можете начинать темы
    Вы не можете отвечать на сообщения
    Вы не можете редактировать свои сообщения
    Вы не можете удалять свои сообщения
    Вы не можете голосовать в опросах
    Вы не можете прикреплять файлы к сообщениям
    Вы можете скачивать файлы