MEGA NEWS Получи личный уникальный адрес сайта и защити себя от блокировок. Внимание количество ограничено!!!

iTunes

1+1

iTunes

мы

iTunes

1

iTunes

Чернобыль

iTunes

Ральф против интернета

Лицензия

ПШазам

Лицензия

Игра престолов

Лицензия

30
pack

ВАЖНО

!!Акция!!

Alien_RageХит недели

RePack

Resident Evil 21

ИГРА 18+

pack

RePack

Metro:Exodus

!!Акция!!

Alien_Rage

RePack

fifa19

RePack

Assassins Creed: Odyssey

RePack

NEED FOR SPEED™ PAYBACK

3 сезон

9 сезон

Бесстыжие 9 сезон

Все сериалы

все сериалы на PB.wtf

RePack

FAR CRY 5
Ребята, катастрофически не хватает 1900р. для оплаты серверов за АВГУСТ (всвязи с блокировками трафик упал в 3 раза), 1-2р., выручайте.
  

Отчаянные / Сезон: 1 / Серии: 1-12 из 12 (Дарья Полторацкая) [2019, Мелодрама, драма, SATRip] freegat.top

Отчаянные через торрент freegat.top

Раздают: 3 [ 14 KB/s ]
Размер: 7.03 GB | Добавлен: 4 д. назад | Торрент скачан:10 раз
Скачать  

07-10-2019 12:45 Отчаянные Скачать торрент  

Отчаянные
Год выпуска: 2019
Страна: Россия
Жанр: Мелодрама, драма
Продолжительность: ~ 00:52:00
Субтитры: отсутствуют

Режиссер: Дарья Полторацкая



В ролях: Анна Снаткина, Анна Банщикова, Светлана Корчагина, Данила Якушев, Сергей Чонишвили, Александр Левин, Олег Тактаров, Сергей Комаров, Дмитрий Ермак, Максим Деричев, Александр Гришин, Юрий Батурин, Артём Сучков, Кузьма Сапрыкин, Денис Бузин, Илья Исаев, Александра Скачкова, Сандра Вострецова, Юлия Деллос, Дмитрий Ломакин, Сергей Черданцев

Описание: В водоворот событий оказываются вовлечены две женщины с диаметрально противоположными характерами и непростыми судьбами. Объединяет Риту и Ольгу лишь одно: ни одна ни другая никогда ранее не пересекалась с преступным миром. Всё меняется и кардинально усложняется, когда Рита и Ольга сначала становятся свидетельницами убийства, а затем – невольными преступницами и главными подозреваемыми в череде громких уголовных дел. По следу беглянок «пускают собак» и власти, и лидеры криминальных группировок. Опасность подстерегает повсюду, и с каждым часом положение ухудшается. Многочисленные сложности всё время требуют находить решения, выкручиваться, действовать на пределе сил и возможностей, наконец, научиться доверять друг другу ... и – бежать, бежать…

Качество: SATRip
Формат: AVI

Видео: XviD, 1550 Кбит/с, 720x400
Аудио: MP3, 2 ch, 192 Кбит/с
скриншот  скриншот  скриншот  скриншот  

Общее
Полное имя : D:\Otchayannye.2019.XviD.SATRip.25Kuzmich\Otchayannye.e01.XviD.SATRip.25Kuzmich.avi
Формат : AVI
Формат/Информация : Audio Video Interleave
Размер файла : 600 Мбайт
Продолжительность : 47 м. 43 с.
Общий поток : 1757 Кбит/сек
Программа кодирования : VirtualDubMod 1.5.10.3 | www.virtualdub-fr.org || (build 2550/release)
Библиотека кодирования : VirtualDubMod build 2550/release

Видео
Идентификатор : 0
Формат : MPEG-4 Visual
Профиль формата : Advanced Simple@L5
Параметр BVOP формата : 1
Параметр QPel формата : Нет
Параметр GMC формата : Без точки перехода
Параметр матрицы формата : Default (MPEG)
Идентификатор кодека : XVID
Идентификатор кодека/Подсказка : XviD
Продолжительность : 47 м. 43 с.
Битрейт : 1550 Кбит/сек
Ширина : 720 пикселей
Высота : 400 пикселей
Соотношение сторон : 16:9
Частота кадров : 25,000 кадров/сек
Цветовое пространство : YUV
Субдискретизация насыщенности : 4:2:0
Битовая глубина : 8 бит
Тип развёртки : Прогрессивная
Метод сжатия : С потерями
Бит/(Пиксели*Кадры) : 0.207
Размер потока : 508 Мбайт (85%)
Библиотека кодирования : XviD 73

Аудио
Идентификатор : 1
Формат : MPEG Audio
Версия формата : Version 1
Профиль формата : Layer 3
Режим : Joint stereo
Идентификатор кодека : 55
Идентификатор кодека/Подсказка : MP3
Продолжительность : 47 м. 43 с.
Вид битрейта : Постоянный
Битрейт : 192 Кбит/сек
Каналы : 2 канала
Частота : 48,0 КГц
Метод сжатия : С потерями
Размер потока : 65,5 Мбайт (11%)
Выравнивание : Соединение по промежуткам
Библиотека кодирования : LAME3.99r
Настройки программы : -m j -V 4 -q 2 -lowpass 18.6 -b 192

При каждом добавлении создаётся новый торрент. Чтобы начать докачку новой серии, пользователям необходимо сделать следующее:
- остановить скачивание;
- удалить старый торрент у себя из клиента (старые серии удалять не надо);
- скачать новый торрент и запустить его у себя в клиенте вместо старого, при этом указать клиенту путь в старую папку, куда и должно происходить скачивание новых серий.
freegat.top



Скачать Отчаянные через торрент http://i106.fastpic.ru/big/2019/1007/89/3ffb3fa3b23d36ee8299b60cdab26689.jpg Скачать фильм Отчаянные через торрент бесплантно в хорошем качестве Описание: В водоворот событий оказываются вовлечены две женщины с диаметрально противоположными характерами и непростыми судьбами. ... 10 10 5
Торрент: Зарегистрирован [2019-10-16 16:36] · скачан: 10 раз
Статус: √ проверено
Размер: 7.03 GB
Как cкачать? Как скачать Отчаянные через торрент | qTorrent

% Раздел Тема Автор DL S | L
Наши сериалы [ 15.11 GB ] Отчаянные / Сезон: 1 / Серии: 1-12 из 12 [2019 Мело HDTVRip 720p] bober100 Скачать
3 | 0
Наши сериалы [ 7.3 GB ] Отчаянные / Сезон: 1 / Серии: 1-12 из 12 [2019 Мело HDTVRip] bober100 Скачать
3 | 0
Наши сериалы [ 28.29 GB ] Отчаянные / Сезон: 1 / Серии: 1-12 из 12 [2019 Мело HDTV 1080i] bober100 Скачать
3 | 0
Наши сериалы [ 8.96 GB ] Отчаянные / Сезон: 1 / Серии: 1-12 из 12 [2019 Мело HDTVRip-AVC] bober100 Скачать
2 | 0


>> Регистрируемся здесь <<






Отзывы и комментарии о схеме читаем и пишем здесь: ---> Отзывы и комментарии о схеме

Новые благодарочки в телеграм довольных пользователей:
скриншот   скриншот   скриншот   скриншот   скриншот
    Дорогой пользователь! Огромная просьба, поблагодарите релизера, оцените раздачу и оставьте свои комментарий, если Вы скачали Отчаянные через торрент бесплатно! Внесите свою лепту в развитие PiratBit!
    Комментировать посты могут только пользователи прошедшие не сложную регистрацию
    Показать сообщения:    

    Отчаянные через торрент
    Скачать бесплатно Отчаянные
    Отчаянные скачать торрент
    Отчаянные смотреть онлайн
    Cкачать фильм Отчаянные бесплатно
    Отчаянные скачать торрент в хорошем качестве
    Отчаянные смотреть онлайн бесплатно в хорошем качестве


    Вы не можете начинать темы
    Вы не можете отвечать на сообщения
    Вы не можете редактировать свои сообщения
    Вы не можете удалять свои сообщения
    Вы не можете голосовать в опросах
    Вы не можете прикреплять файлы к сообщениям
    Вы можете скачивать файлы