Ссылка на приватное зеркало всего за 1$. Внимание количество ограничено!!!

iTunes

1+1

iTunes

мы

MV0

1

WEB-DLRip

Джокер

Пифагор

Ведьмак / The Witcher сериал

iTunes

ПШазам

iTunes

Оно 2

iTunes

30
pack

Вам бонус

ВАЖНО

!!Акция!!

Alien_RageХит недели

RePack

Resident Evil 21

ИГРА 18+

pack

RePack

jed

!!Акция!!

Alien_Rage

RePack

fifa19

RePack

Assassins Creed: Odyssey

RePack

NEED FOR SPEED™ PAYBACK

4 сезон

9 сезон

Бесстыжие 9 сезон

Все сериалы

все сериалы на PB.wtf

RePack

FAR CRY 5
  

СеняФедя / Сезон: 3 / Серии: 1-17 из 17 (Юрий Владовский) [2019, комедия, WEB-DL 720p] freegat.top

СеняФедя через торрент freegat.top

Раздают: 1 [ 0 KB/s ]
Размер: 8.92 GB | Добавлен: 3 мес. 19 д. назад | Торрент скачан:30 раз
Скачать  

07-10-2019 16:03 СеняФедя Скачать торрент  

#СеняФедя
Год выпуска: 2019
Страна: Россия
Жанр: комедия
Продолжительность: ~ 00:25:00 (Серия)
Субтитры: отсутствуют

Режиссер: Юрий Владовский



В ролях: Сергей Лавыгин, Михаил Тарабукин, Дмитрий Нагиев, Анна Бегунова, Ирина Серова, Юлия Сулес

Описание: По сюжету Максим Галкин отказывается вести корпоратив компании Марины (Анна Бегунова), поэтому жена Сени (Сергей Лавыгин) срочно ищет новую кандидатуру. Федя (Михаил Тарабукин) обещает договориться с бывшим боссом Дмитрием Нагиевым, но тот не берёт трубку. Чтобы спасти корпоратив и Марину от увольнения, друзья решают найти двойника шоумена. Казалось бы, план отличный, только на празднике появляется друг Нагиева, который узнаёт о подмене и рассказывает о махинациях самому актёру.

Качество: WEB-DL 720p
Формат: MKV

Видео: 1280x720, (16:9), 25 fps, AVC MPEG-4 (x264), High@L4.1 ~ 2900 kbps , 0.126 bit/pixel
Аудио: 48 kHz, АС3, 2/0 (L,R), ~192 kbps avg
скриншот  скриншот  скриншот  скриншот  скриншот  

Общее
Уникальный идентификатор : 233794538078954132653093630880300261977 (0xAFE330AF1D756EFDBEEF280A0EE1E259)
Полное имя : C:\СеняФедя 03.2019.WEB-DL 720p.Files-x\01. СеняФедя 03.2019.WEB-DL 720p.Files-x.mkv
Формат : Matroska
Версия формата : Version 2
Размер файла : 564 Мбайт
Продолжительность : 24 м. 53 с.
Общий поток : 3169 Кбит/сек
Дата кодирования : UTC 2019-10-07 15:39:39
Программа кодирования : mkvmerge v7.8.0 ('River Man') 32bit built on Apr 3 2015 12:11:22
Библиотека кодирования : libebml v1.3.1 + libmatroska v1.4.2

Видео
Идентификатор : 1
Формат : AVC
Формат/Информация : Advanced Video Codec
Профиль формата : High@L4.1
Настройки формата : CABAC / 5 Ref Frames
Параметр CABAC формата : Да
Параметр RefFrames формата : 5 кадров
Идентификатор кодека : V_MPEG4/ISO/AVC
Продолжительность : 24 м. 53 с.
Битрейт : 2900 Кбит/сек
Ширина : 1280 пикселей
Высота : 720 пикселей
Соотношение сторон : 16:9
Режим частоты кадров : Постоянный
Частота кадров : 25,000 кадров/сек
Стандарт вещания : PAL
Цветовое пространство : YUV
Субдискретизация насыщенности : 4:2:0
Битовая глубина : 8 бит
Тип развёртки : Прогрессивная
Бит/(Пиксели*Кадры) : 0.126
Размер потока : 519 Мбайт (92%)
Default : Да
Forced : Нет
Цветовой диапазон : Limited
Основные цвета : BT.709
Характеристики трансфера : BT.709
Коэффициенты матрицы : BT.709

Аудио
Идентификатор : 2
Формат : AC-3
Формат/Информация : Audio Coding 3
Коммерческое название : Dolby Digital
Идентификатор кодека : A_AC3
Продолжительность : 24 м. 53 с.
Вид битрейта : Постоянный
Битрейт : 192 Кбит/сек
Каналы : 2 канала
ChannelLayout : L R
Частота : 48,0 КГц
Частота кадров : 31,250 кадров/сек (1536 SPF)
Метод сжатия : С потерями
Размер потока : 34,2 Мбайт (6%)
ServiceKind/String : Complete Main
Default : Да
Forced : Нет

нимание! Раздача ведётся путём добавления новых серий; при каждом добавлении создfётся новый торрент. Чтобы начать докачку новой серии, пользователям необходимо сделать следующее: (1) остановить скачивание, (2) удалить старый торрент у себя из клиента (старые серии удалять не надо), (3) скачать новый торрент и запустить его у себя в клиенте вместо старого, при этом указать клиенту путь в старую папку куда и должно происходить скачивание новых серий.

Ваш клиент при этом должен произвести хеширование (проверку) старой папки (если не производит сам - помогите ему сделать это), и будет докачивать только те серии которых у вас ещё нет. Старые серии при этом не удаляются, а продолжают раздаваться!

Eсли вы уже удалили старые серии, то предотвратить повторную закачку старых серий можно, отжав галочку в соответсвующих местах при запуске нового торрента.
freegat.top



Скачать СеняФедя через торрент https://i87.fastpic.ru/big/2019/1007/55/1b5132aad7d3d9cc38c536a309a13855.jpg Скачать фильм СеняФедя через торрент бесплантно в хорошем качестве Описание: По сюжету Максим Галкин отказывается вести корпоратив компании Марины (Анна Бегунова), поэтому жена Сени (Сергей Лавыгин) срочно ... 8 10 9
Торрент: Зарегистрирован [2019-11-08 00:58] · скачан: 30 раз
Статус: √ проверено
Размер: 8.92 GB
Как cкачать? Как скачать СеняФедя через торрент | qTorrent

% Раздел Тема Автор DL S | L
Наши сериалы [ 5.01 GB ] СеняФедя / Сезон: 3 / Серии: 1-17 из 17 [2019 WEB-DLRip-AVC] bober100 Скачать
1 | 0
Наши сериалы [ 4.99 GB ] СеняФедя / Сезон: 3 / Серии: 1-17 из 17 [2019 WEB-DLRip] bober100 Скачать
1 | 0
Наши сериалы [ 14.39 GB ] СеняФедя / Сезон: 3 / Серии: 1-17 из 17 [2019 WEB-DL 1080p] bober100 Скачать
1 | 0
Наши сериалы [ 4.97 GB ] СеняФедя / Сезон: 3 / Серии: 1-17 из 17 [2019 SATRip] bober100 Скачать
1 | 0

28-11-2019 20:33  

Отключить всю рекламу на сайте

    Дорогой пользователь! Огромная просьба, поблагодарите релизера, оцените раздачу и оставьте свои комментарий, если Вы скачали СеняФедя через торрент бесплатно! Внесите свою лепту в развитие PiratBit!
    Комментировать посты могут только пользователи прошедшие не сложную регистрацию
    Показать сообщения:    

    СеняФедя через торрент
    Скачать бесплатно СеняФедя
    СеняФедя скачать торрент
    СеняФедя смотреть онлайн
    Cкачать фильм СеняФедя бесплатно
    СеняФедя скачать торрент в хорошем качестве
    СеняФедя смотреть онлайн бесплатно в хорошем качестве


    Вы не можете начинать темы
    Вы не можете отвечать на сообщения
    Вы не можете редактировать свои сообщения
    Вы не можете удалять свои сообщения
    Вы не можете голосовать в опросах
    Вы не можете прикреплять файлы к сообщениям
    Вы можете скачивать файлы