MEGA NEWS Получи личный уникальный адрес сайта и защити себя от блокировок. Внимание количество ограничено!!!

iTunes

1+1

iTunes

мы

iTunes

1

iTunes

Чернобыль

iTunes

Ральф против интернета

Лицензия

ПШазам

Лицензия

Игра престолов

Лицензия

30
pack

ВАЖНО

!!Акция!!

Alien_RageХит недели

RePack

Resident Evil 21

ИГРА 18+

pack

RePack

Metro:Exodus

!!Акция!!

Alien_Rage

RePack

fifa19

RePack

Assassins Creed: Odyssey

RePack

NEED FOR SPEED™ PAYBACK

3 сезон

9 сезон

Бесстыжие 9 сезон

Все сериалы

все сериалы на PB.wtf

RePack

FAR CRY 5
Ребята, катастрофически не хватает 1900р. для оплаты серверов за АВГУСТ (всвязи с блокировками трафик упал в 3 раза), 1-2р., выручайте.
  

#СеняФедя / Сезон: 3 / Серии: 1-8 из 12 (Юрий Владовский) [2019, комедия, WEB-DL 1080p] freegat.top

#СеняФедя через торрент freegat.top

Раздают: 4 [ 659 KB/s ] Качают: 2 [ 0 KB/s ]
Размер: 6.91 GB | Добавлен: 3 д. назад | Торрент скачан:9 раз
Скачать  

07-10-2019 16:03 #СеняФедя Скачать торрент  

#СеняФедя
Год выпуска: 2019
Страна: Россия
Жанр: комедия
Продолжительность: ~ 00:25:00 (Серия)
Субтитры: отсутствуют

Режиссер: Юрий Владовский



В ролях: Сергей Лавыгин, Михаил Тарабукин, Дмитрий Нагиев, Анна Бегунова, Ирина Серова, Юлия Сулес

Описание: По сюжету Максим Галкин отказывается вести корпоратив компании Марины (Анна Бегунова), поэтому жена Сени (Сергей Лавыгин) срочно ищет новую кандидатуру. Федя (Михаил Тарабукин) обещает договориться с бывшим боссом Дмитрием Нагиевым, но тот не берёт трубку. Чтобы спасти корпоратив и Марину от увольнения, друзья решают найти двойника шоумена. Казалось бы, план отличный, только на празднике появляется друг Нагиева, который узнаёт о подмене и рассказывает о махинациях самому актёру.

Качество: WEB-DL 1080p
Формат: MKV

Видео: 1920х1080 (16:9), 25 fps, AVC MPEG-4 (x264), High@L4.0 ~ 5000 kbps avg, 0.097 bit/pixel
Аудио: 48 kHz, AC3, 2 ch, 192 kbps avg
скриншот  скриншот  скриншот  скриншот  

General
Unique ID : 230977713365689820711853931857006985466 (0xADC4B080D318F416805A2E9E3F8680FA)
Complete name : D:\SenyaFedya.S03.2019.WEB-DL.(1080p).ExKinoRay\SenyaFedya.S03.E01.2019.WEB-DL.(1080p).ExKinoRay.mkv
Format : Matroska
Format version : Version 4 / Version 2
File size : 918 MiB
Duration : 24 min 53 s
Overall bit rate mode : Variable
Overall bit rate : 5 157 kb/s
Encoded date : UTC 2019-10-07 15:46:21
Writing application : mkvmerge v6.9.1 ('Blue Panther') 64bit built on Apr 18 2014 18:23:38
Writing library : libebml v1.3.0 + libmatroska v1.4.1

Video
ID : 1
Format : AVC
Format/Info : Advanced Video Codec
Format profile : High@L4.1
Format settings : CABAC / 5 Ref Frames
Format settings, CABAC : Yes
Format settings, ReFrames : 5 frames
Codec ID : V_MPEG4/ISO/AVC
Duration : 24 min 53 s
Bit rate mode : Variable
Bit rate : 4 863 kb/s
Maximum bit rate : 40.0 Mb/s
Width : 1 920 pixels
Height : 1 080 pixels
Display aspect ratio : 16:9
Frame rate mode : Constant
Frame rate : 25.000 FPS
Standard : PAL
Color space : YUV
Chroma subsampling : 4:2:0
Bit depth : 8 bits
Scan type : Progressive
Bits/(Pixel*Frame) : 0.094
Stream size : 866 MiB (94%)
Default : Yes
Forced : No
Color range : Limited
Color primaries : BT.709
Transfer characteristics : BT.709
Matrix coefficients : BT.709

Audio
ID : 2
Format : AC-3
Format/Info : Audio Coding 3
Codec ID : A_AC3
Duration : 24 min 53 s
Bit rate mode : Constant
Bit rate : 192 kb/s
Channel(s) : 2 channels
Channel positions : Front: L R
Sampling rate : 48.0 kHz
Frame rate : 31.250 FPS (1536 SPF)
Bit depth : 16 bits
Compression mode : Lossy
Stream size : 34.2 MiB (4%)
Language : Russian
Service kind : Complete Main
Default : Yes
Forced : No

нимание! Раздача ведётся путём добавления новых серий; при каждом добавлении создfётся новый торрент. Чтобы начать докачку новой серии, пользователям необходимо сделать следующее: (1) остановить скачивание, (2) удалить старый торрент у себя из клиента (старые серии удалять не надо), (3) скачать новый торрент и запустить его у себя в клиенте вместо старого, при этом указать клиенту путь в старую папку куда и должно происходить скачивание новых серий.

Ваш клиент при этом должен произвести хеширование (проверку) старой папки (если не производит сам - помогите ему сделать это), и будет докачивать только те серии которых у вас ещё нет. Старые серии при этом не удаляются, а продолжают раздаваться!

Eсли вы уже удалили старые серии, то предотвратить повторную закачку старых серий можно, отжав галочку в соответсвующих местах при запуске нового торрента.
freegat.top



Скачать #СеняФедя через торрент https://i87.fastpic.ru/big/2019/1007/55/1b5132aad7d3d9cc38c536a309a13855.jpg Скачать фильм #СеняФедя через торрент бесплантно в хорошем качестве Описание: По сюжету Максим Галкин отказывается вести корпоратив компании Марины (Анна Бегунова), поэтому жена Сени (Сергей Лавыгин) срочно ... 10 10 6
Торрент: Зарегистрирован [2019-10-17 16:32] · скачан: 9 раз
Статус: √ проверено
Размер: 6.91 GB
Как cкачать? Как скачать #СеняФедя через торрент | qTorrent

% Раздел Тема Автор DL S | L
Наши сериалы [ 2.35 GB ] #СеняФедя / Сезон: 3 / Серии: 1-8 из 12 [2019 WEB-DLRip] bober100 Скачать
3 | 3
Наши сериалы [ 4.24 GB ] #СеняФедя / Сезон: 3 / Серии: 1-8 из 12 [2019 WEB-DL 720p] bober100 Скачать
4 | 3
Наши сериалы [ 2.34 GB ] #СеняФедя / Сезон: 3 / Серии: 1-8 из 12 [2019 SATRip] bober100 Скачать
5 | 2


>> Регистрируемся здесь <<






Отзывы и комментарии о схеме читаем и пишем здесь: ---> Отзывы и комментарии о схеме

Новые благодарочки в телеграм довольных пользователей:
скриншот   скриншот   скриншот   скриншот   скриншот
    Дорогой пользователь! Огромная просьба, поблагодарите релизера, оцените раздачу и оставьте свои комментарий, если Вы скачали #СеняФедя через торрент бесплатно! Внесите свою лепту в развитие PiratBit!
    Комментировать посты могут только пользователи прошедшие не сложную регистрацию
    Показать сообщения:    

    #СеняФедя через торрент
    Скачать бесплатно #СеняФедя
    #СеняФедя скачать торрент
    #СеняФедя смотреть онлайн
    Cкачать фильм #СеняФедя бесплатно
    #СеняФедя скачать торрент в хорошем качестве
    #СеняФедя смотреть онлайн бесплатно в хорошем качестве


    Вы не можете начинать темы
    Вы не можете отвечать на сообщения
    Вы не можете редактировать свои сообщения
    Вы не можете удалять свои сообщения
    Вы не можете голосовать в опросах
    Вы не можете прикреплять файлы к сообщениям
    Вы можете скачивать файлы