MEGA NEWS Получи личный уникальный адрес сайта и защити себя от блокировок. Внимание количество ограничено!!!

iTunes

1+1

iTunes

мы

iTunes

1

iTunes

Чернобыль

iTunes

Ральф против интернета

Лицензия

ПШазам

Лицензия

Игра престолов

Лицензия

30
pack

ВАЖНО

!!Акция!!

Alien_RageХит недели

RePack

Resident Evil 21

ИГРА 18+

pack

RePack

Metro:Exodus

!!Акция!!

Alien_Rage

RePack

fifa19

RePack

Assassins Creed: Odyssey

RePack

NEED FOR SPEED™ PAYBACK

3 сезон

9 сезон

Бесстыжие 9 сезон

Все сериалы

все сериалы на PB.wtf

RePack

FAR CRY 5
Ребята, катастрофически не хватает 1900р. для оплаты серверов за АВГУСТ (всвязи с блокировками трафик упал в 3 раза), 1-2р., выручайте.
  

Бэтвумен / Batwoman / Сезон: 1 / Серия: 1 из 9 (Маркос Сига, Лаура Белси) [2019, фантастика, боевик, драма, криминал, приключения, WEB-DL 1080p] MVO [Jaskier] freegat.top

Бэтвумен через торрент freegat.top

Раздают: 2 [ 933 KB/s ]
Размер: 2.67 GB | Добавлен: 5 д. назад | Торрент скачан:8 раз
Скачать  

09-10-2019 16:36 Бэтвумен Скачать торрент  

Бэтвумен / Batwoman

Год выпуска: 2019
Страна: США
Жанр: фантастика, боевик, драма, криминал, приключения
Продолжительность: ~ 00:44:00
Перевод: Профессиональный (многоголосый закадровый) | Jaskier
Субтитры: отсутствуют

Режиссёр: Маркос Сига, Лаура Белси

В ролях: Камрус Джонсон, Руби Роуз, Элизабет Энвейс, Рэйчел Скарстен, Дугрей Скотт, Николь Кан, Сэм Литтлфилд, Брендон Заб, Мэттью В. Аллен

Описание: Кэти Кейн — дочь владельца частной охранной компании, которую с позором выгнали из армии. Она возвращается в родной Готэм, лишенный защиты Бэтмена — Тёмный рыцарь пропал без следа три года назад. Пока в городе орудует жестокая банда, Кэти при поддержке гениального Люка Фокса вынуждена взять на себя защиту невинных и стать Бэтвумен.

rating

Качество: WEB-DL 1080p
Формат: MKV

Видео: X264, ~ 8000 kbps, 1920x960, 23.976 fps
Аудио 1: AC3, 48,0 КГц, 6 ch, 384 kbps - RUS
Аудио 2: AC3, 48,0 КГц, 6 ch, 384 kbps - ENG


Реклама: аудио, два раза в начале и в конце по 13 секунд
Общее
Уникальный идентификатор                 : 242440446578352658100631650044744153647 (0xB66454E26657558A8F8EBBCEC5A5BA2F)
Полное имя                               : V:\Batwoman. Season 1 (1080p l Jaskier)\Batwoman.S01E01.1080p.Jaskier.mkv
Формат                                   : Matroska
Версия формата                           : Version 2
Размер файла                             : 2,67 Гбайт
Продолжительность                        : 42 м.
Режим общего битрейта                    : Постоянный
Общий поток                              : 9013 Кбит/сек
Дата кодирования                         : UTC 2019-10-09 15:42:47
Программа кодирования                    : mkvmerge v7.8.0 ('River Man') 32bit built on Apr  3 2015 12:11:22
Библиотека кодирования                   : libebml v1.3.1 + libmatroska v1.4.2

Видео
Идентификатор                            : 1
Формат                                   : AVC
Формат/Информация                        : Advanced Video Codec
Профиль формата                          : High@L4
Параметр CABAC формата                   : Да
Параметр ReFrames формата                : 4 кадра
Идентификатор кодека                     : V_MPEG4/ISO/AVC
Продолжительность                        : 42 м.
Вид битрейта                             : Постоянный
Битрейт                                  : 8065 Кбит/сек
Номинальный битрейт                      : 10000 Кбит/сек
Ширина                                   : 1920 пикселей
Высота                                   : 960 пикселей
Соотношение сторон                       : 2,000
Режим частоты кадров                     : Постоянный
Частота кадров                           : 23,976 (24000/1001) кадра/сек
Цветовое пространство                    : YUV
Субдискретизация насыщенности            : 4:2:0
Битовая глубина                          : 8 бит
Тип развёртки                            : Прогрессивная
Бит/(Пиксели*Кадры)                      : 0.183
Размер потока                            : 2,39 Гбайт (89%)
Default                                  : Да
Forced                                   : Нет
Цветовой диапазон                        : Limited
Основные цвета                           : BT.709
Характеристики трансфера                 : BT.709
Коэффициенты матрицы                     : BT.709

Аудио #1
Идентификатор                            : 2
Формат                                   : AC-3
Формат/Информация                        : Audio Coding 3
Расширение режима                        : CM (complete main)
Параметр Endianness формата              : Big
Идентификатор кодека                     : A_AC3
Продолжительность                        : 42 м.
Вид битрейта                             : Постоянный
Битрейт                                  : 384 Кбит/сек
Каналы                                   : 6 каналов
Расположение каналов                     : Front: L C R, Side: L R, LFE
Частота                                  : 48,0 КГц
Частота кадров                           : 31,250 кадров/сек (1536 spf)
Метод сжатия                             : С потерями
Размер потока                            : 117 Мбайт (4%)
Язык                                     : Russian
Default                                  : Да
Forced                                   : Нет

Аудио #2
Идентификатор                            : 3
Формат                                   : AC-3
Формат/Информация                        : Audio Coding 3
Расширение режима                        : CM (complete main)
Параметр Endianness формата              : Big
Идентификатор кодека                     : A_AC3
Продолжительность                        : 42 м.
Вид битрейта                             : Постоянный
Битрейт                                  : 384 Кбит/сек
Каналы                                   : 6 каналов
Расположение каналов                     : Front: L C R, Side: L R, LFE
Частота                                  : 48,0 КГц
Частота кадров                           : 31,250 кадров/сек (1536 spf)
Метод сжатия                             : С потерями
Размер потока                            : 117 Мбайт (4%)
Язык                                     : English
Default                                  : Нет
Forced                                   : Нет
Когда раздача ведётся путём добавления новых серий, при каждом добавлении создётся новый торрент. Чтобы начать докачку новой серии, пользователям необходимо сделать следующее:
(1) остановить скачивание,
(2) удалить старый торрент у себя из клиента (старые серии удалять не надо),
(3) скачать новый торрент и запустить его у себя в клиенте вместо старого, при этом указать клиенту путь в старую папку, куда и должно происходить скачивание новых серий.
Ваш клиент при этом должен произвести хеширование (проверку) старой папки (если не производит сам - помогите ему сделать это), и будет докачивать только те серии, которых у вас ещё нет. Старые серии при этом не удаляются, а продолжают раздаваться!
Eсли вы уже удалили старые серии, то предотвратить повторную закачку старых серий можно, отжав галочку в соответсвующих местах при запуске нового торрента. По возможности, желательно не удалять старые серии как можно дольше, чтобы релизёр не столько продолжал раздавать старые серии, а смог сконцентрироваться на новых.
freegat.top



Скачать Бэтвумен через торрент https://i86.fastpic.ru/big/2019/1009/09/c73e5b949c91d765eee6f3de07407409.png Скачать фильм Бэтвумен через торрент бесплантно в хорошем качестве Описание: Кэти Кейн — дочь владельца частной охранной компании, которую с позором выгнали из армии. Она возвращается в родной Готэм, ... 10 10 2
Торрент: Зарегистрирован [2019-10-09 16:36] · скачан: 8 раз
Статус: √ проверено
Размер: 2.67 GB
Как cкачать? Как скачать Бэтвумен через торрент | qTorrent

% Раздел Тема Автор DL S | L
T Зарубежные сериалы [ 4.54 GB ] Бэтвумен / Batwoman / Сезон: 1 / Серии: 1-2 из 9 [2019 WEBRip 1080p] MVO [Octopus] bober100 Скачать
3 | 1
Зарубежные сериалы [ 2.82 GB ] Бэтвумен / Batwoman / Сезон: 1 / Серия: 1 из 9 [2019 WEB-DL 1080p] MVO [Lostfilm] bober100 Скачать
1 | 0
Зарубежные сериалы [ 1.33 GB ] Бэтвумен / Batwoman / Сезон: 1 / Серия: 1 из 9 [2019 WEB-DL 720p] MVO [Lostfilm] bober100 Скачать
1 | 0
Зарубежные сериалы [ 4.92 GB ] Бэтвумен / Batwoman / Сезон: 1 / Серия: 1-2 из 9 [2019 WEB-DL 1080p] DUB [DoubleRec.Imago] bober100 Скачать
2 | 1
Зарубежные сериалы [ 1.26 GB ] Бэтвумен / Batwoman / Сезон: 1 / Серия: 1 из 9 [2019 WEB-DL 720p] MVO [Jaskier] bober100 Скачать
1 | 0
Зарубежные сериалы [ 507 MB ] Бэтвумен / Batwoman / Сезон: 1 / Серия: 1 из 9 [2019 WEB-DLRip] MVO [Jaskier] bober100 Скачать
1 | 0
Зарубежные сериалы [ 2.31 GB ] Бэтвумен / Batwoman / Сезон: 1 / Серия: 1-2 из 9 [2019 WEB-DL 720p] DUB [DoubleRec.Imago] bober100 Скачать
2 | 0


>> Регистрируемся здесь <<






Отзывы и комментарии о схеме читаем и пишем здесь: ---> Отзывы и комментарии о схеме

Новые благодарочки в телеграм довольных пользователей:
скриншот   скриншот   скриншот   скриншот   скриншот
    Дорогой пользователь! Огромная просьба, поблагодарите релизера, оцените раздачу и оставьте свои комментарий, если Вы скачали Бэтвумен через торрент бесплатно! Внесите свою лепту в развитие PiratBit!
    Комментировать посты могут только пользователи прошедшие не сложную регистрацию
    Показать сообщения:    

    Бэтвумен через торрент
    Скачать бесплатно Бэтвумен
    Бэтвумен скачать торрент
    Бэтвумен смотреть онлайн
    Cкачать фильм Бэтвумен бесплатно
    Бэтвумен скачать торрент в хорошем качестве
    Бэтвумен смотреть онлайн бесплатно в хорошем качестве


    Вы не можете начинать темы
    Вы не можете отвечать на сообщения
    Вы не можете редактировать свои сообщения
    Вы не можете удалять свои сообщения
    Вы не можете голосовать в опросах
    Вы не можете прикреплять файлы к сообщениям
    Вы можете скачивать файлы