новый адрес пиратбит piratbit
Мега распродажа FORZA HORIZON 4 ULTIMATE+ВСЕ DLC+ОНЛАЙН всего за 499р. 349 руб. (супер цена). Внимание количество ограничено!!!

iTunes

1+1

iTunes

мы

iTunes

1

iTunes

Чернобыль

iTunes

Ральф против интернета

Лицензия

ПШазам

Лицензия

Игра престолов

Лицензия

30
pack

ВАЖНО

!!Акция!!

Alien_RageХит недели

RePack

Resident Evil 21

ИГРА 18+

pack

RePack

Metro:Exodus

!!Акция!!

Alien_Rage

RePack

fifa19

RePack

Assassins Creed: Odyssey

RePack

NEED FOR SPEED™ PAYBACK

3 сезон

9 сезон

Бесстыжие 9 сезон

Все сериалы

все сериалы на PB.wtf

RePack

FAR CRY 5
Ребята, катастрофически не хватает 1900р. для оплаты серверов за Октябрь (всвязи с блокировками трафик упал в 3 раза), 1-2р., выручайте.
  

Вход в пустоту / Enter the Void (Гаспар Ноэ) [2009 г., фэнтези, драма, BDRip AVC] MVO, AVO (М.Яроцкий) freegat.top

Вход в пустоту через торрент freegat.top

Размер: 4.37 GB | Добавлен: 1 мес. назад | Торрент скачан:10 раз
Скачать  

11-10-2019 21:00 Вход в пустоту Скачать торрент  

Вход в пустоту / Enter the Void
Год выпуска: 2009

Страна: Франция, Германия, Италия, Канада, Япония

Жанр: Фэнтези, драма

Продолжительность: 02:41:01

Перевод: Профессиональный (многоголосый), авторский (одноголосый)

Субтитры: Русские, английские

Режиссер: Гаспар Ноэ

rating

В ролях: Натаниель Браун, Пас де ла Уэрта, Сирил Рой, Олли Александр, Масато Танно, Эд Спир

Описание: Оскар и его сестра Линда — приезжие, новые обитатели Токио. Пока Оскар приторговывает наркотиками, Линда танцует стриптиз в ночном клубе. Однажды, во время полицейской облавы на местный бар, Оскар получает пулю и, пока он умирает, его душа, верная обещанию никогда не оставлять свою сестру, отказывается покидать мир живых. Беспокойный дух Оскара скитается по городу, преследуемый невыносимыми кошмарами. Прошлое, настоящее, будущее переплетаются в галлюциногенном водовороте.
Качество: BDRip AVC
Формат: MKV
Видео: MPEG-4 AVC, 2542 Кбит/с, 1024x436
Аудио#1: Русский, AC3, 6 ch, 448 Кбит/с - MVO
Аудио#2: Русский, AC3, 6 ch, 448 Кбит/с - AVO (М.Яроцкий) - !!!нецензурная лексика!!!
Аудио#3: Английский, AC3, 6 ch, 448 Кбит/с
Видео
Идентификатор : 1
Формат : AVC
Формат/Информация : Advanced Video Codec
Профиль формата : High@L4.1
Настройки формата : CABAC / 11 Ref Frames
Параметр CABAC формата : Да
Параметр RefFrames формата : 11 кадров
Идентификатор кодека : V_MPEG4/ISO/AVC
Продолжительность : 2 ч. 41 м.
Битрейт : 2542 Кбит/сек
Ширина : 1024 пикселя
Высота : 436 пикселей
Соотношение сторон : 2,35:1
Режим частоты кадров : Постоянный
Частота кадров : 24,000 кадра/сек
Цветовое пространство : YUV
Субдискретизация насыщенности : 4:2:0
Битовая глубина : 8 бит
Тип развёртки : Прогрессивная
Бит/(Пиксели*Кадры) : 0.237
Размер потока : 2,77 Гбайт (63%)
Библиотека кодирования : x264 core 146 r2538 121396c
Настройки программы : cabac=1 / ref=11 / deblock=1:-3:-3 / analyse=0x3:0x133 / me=umh / subme=11 / psy=1 / psy_rd=1.00:0.00 / mixed_ref=1 / me_range=32 / chroma_me=1 / trellis=2 / 8x8dct=1 / cqm=0 / deadzone=21,11 / fast_pskip=0 / chroma_qp_offset=-2 / threads=12 / lookahead_threads=3 / sliced_threads=0 / nr=0 / decimate=0 / interlaced=0 / bluray_compat=0 / constrained_intra=0 / bframes=9 / b_pyramid=2 / b_adapt=2 / b_bias=0 / direct=3 / weightb=1 / open_gop=0 / weightp=2 / keyint=240 / keyint_min=24 / scenecut=40 / intra_refresh=0 / rc=2pass / mbtree=0 / bitrate=2542 / ratetol=1.0 / qcomp=0.60 / qpmin=0 / qpmax=69 / qpstep=4 / cplxblur=20.0 / qblur=0.5 / ip_ratio=1.40 / pb_ratio=1.30 / aq=3:1.10
Язык : English
Default : Да
Forced : Нет

Аудио #1
Идентификатор : 2
Формат : AC-3
Формат/Информация : Audio Coding 3
Коммерческое название : Dolby Digital
Идентификатор кодека : A_AC3
Продолжительность : 2 ч. 41 м.
Вид битрейта : Постоянный
Битрейт : 448 Кбит/сек
Каналы : 6 каналов
ChannelLayout : L R C LFE Ls Rs
Частота : 48,0 КГц
Частота кадров : 31,250 кадров/сек (1536 SPF)
Битовая глубина : 16 бит
Метод сжатия : С потерями
Размер потока : 516 Мбайт (12%)
Заголовок : Многоголосый (Лицензия) - AC3 5.1, 448 kbps
Язык : Russian
ServiceKind/String : Complete Main
Default : Да
Forced : Нет

Аудио #2
Идентификатор : 3
Формат : AC-3
Формат/Информация : Audio Coding 3
Коммерческое название : Dolby Digital
Идентификатор кодека : A_AC3
Продолжительность : 2 ч. 41 м.
Вид битрейта : Постоянный
Битрейт : 448 Кбит/сек
Каналы : 6 каналов
ChannelLayout : L R C LFE Ls Rs
Частота : 48,0 КГц
Частота кадров : 31,250 кадров/сек (1536 SPF)
Битовая глубина : 16 бит
Метод сжатия : С потерями
Размер потока : 516 Мбайт (12%)
Заголовок : Авторский М.Яроцкий - AC3 5.1, 448 kbps
Язык : Russian
ServiceKind/String : Complete Main
Default : Нет
Forced : Нет

Аудио #3
Идентификатор : 4
Формат : AC-3
Формат/Информация : Audio Coding 3
Коммерческое название : Dolby Digital
Идентификатор кодека : A_AC3
Продолжительность : 2 ч. 41 м.
Вид битрейта : Постоянный
Битрейт : 448 Кбит/сек
Каналы : 6 каналов
ChannelLayout : L R C LFE Ls Rs
Частота : 48,0 КГц
Частота кадров : 31,250 кадров/сек (1536 SPF)
Битовая глубина : 16 бит
Метод сжатия : С потерями
Размер потока : 516 Мбайт (12%)
Заголовок : оригинал - AC3 5.1, 448 kbps
Язык : English
ServiceKind/String : Complete Main
Default : Нет
Forced : Нет

Текст #1
Идентификатор : 5
Формат : UTF-8
Идентификатор кодека : S_TEXT/UTF8
Идентификатор кодека/Информация : UTF-8 Plain Text
Заголовок : Rus
Язык : Russian
Default : Нет
Forced : Нет

Текст #2
Идентификатор : 6
Формат : UTF-8
Идентификатор кодека : S_TEXT/UTF8
Идентификатор кодека/Информация : UTF-8 Plain Text
Заголовок : Eng
Язык : English
Default : Нет
Forced : Нет

Меню
00:00:00.000 : :Chapter 01
00:05:00.000 : :Chapter 02
00:10:00.000 : :Chapter 03
00:15:00.000 : :Chapter 04
00:20:00.000 : :Chapter 05
00:25:00.000 : :Chapter 06
00:30:00.000 : :Chapter 07
00:35:00.000 : :Chapter 08
00:40:00.000 : :Chapter 09
00:45:00.000 : :Chapter 10
00:50:00.000 : :Chapter 11
00:55:00.000 : :Chapter 12
01:00:00.000 : :Chapter 13
01:05:00.000 : :Chapter 14
01:10:00.000 : :Chapter 15
01:15:00.000 : :Chapter 16
01:20:00.000 : :Chapter 17
01:25:00.000 : :Chapter 18
01:30:00.000 : :Chapter 19
01:35:00.000 : :Chapter 20
01:40:00.000 : :Chapter 21
01:45:00.000 : :Chapter 22
01:50:00.000 : :Chapter 23
01:55:00.000 : :Chapter 24
02:00:00.000 : :Chapter 25
02:05:00.000 : :Chapter 26
02:10:00.000 : :Chapter 27
02:15:00.000 : :Chapter 28
02:20:00.000 : :Chapter 29
02:25:00.000 : :Chapter 30
02:30:00.000 : :Chapter 31
02:35:00.000 : :Chapter 32
02:40:00.000 : :Chapter 33

скриншот   скриншот   скриншот   скриншот  

freegat.top



Скачать Вход в пустоту через торрент http://pic1.kartinco.top/images/12/12t1z.jpg Скачать фильм Вход в пустоту через торрент бесплантно в хорошем качестве Описание: Оскар и его сестра Линда — приезжие, новые обитатели Токио. Пока Оскар приторговывает наркотиками, Линда танцует стриптиз в ... 5 10 1
Торрент: Зарегистрирован [2019-10-11 21:00] · скачан: 10 раз
Статус: √ проверено
Размер: 4.37 GB
Как cкачать? Как скачать Вход в пустоту через торрент | qTorrent

% Раздел Тема Автор DL S | L
Фильмы 2009 [ 2.06 GB ] Вход в пустоту / Enter the Void [2009 DVDRip / лицензия] -LoRDaN- Скачать
2 | 0
Фильмы (DVD фильмы) [ 6.37 GB ] Вход в пустоту / Enter the Void [2009 DVD9 лицензия] bassotta Скачать
1 | 0


>> Регистрируемся здесь <<






Отзывы и комментарии о схеме читаем и пишем здесь: ---> Отзывы и комментарии о схеме

Новые благодарочки в телеграм довольных пользователей:
скриншот   скриншот   скриншот   скриншот   скриншот
    Дорогой пользователь! Огромная просьба, поблагодарите релизера, оцените раздачу и оставьте свои комментарий, если Вы скачали Вход в пустоту через торрент бесплатно! Внесите свою лепту в развитие PiratBit!
    Комментировать посты могут только пользователи прошедшие не сложную регистрацию
    Показать сообщения:    

    Вход в пустоту через торрент
    Скачать бесплатно Вход в пустоту
    Вход в пустоту скачать торрент
    Вход в пустоту смотреть онлайн
    Cкачать фильм Вход в пустоту бесплатно
    Вход в пустоту скачать торрент в хорошем качестве
    Вход в пустоту смотреть онлайн бесплатно в хорошем качестве


    Вы не можете начинать темы
    Вы не можете отвечать на сообщения
    Вы не можете редактировать свои сообщения
    Вы не можете удалять свои сообщения
    Вы не можете голосовать в опросах
    Вы не можете прикреплять файлы к сообщениям
    Вы можете скачивать файлы