новый адрес
Ссылка на приватное зеркало всего за 1$. Внимание количество ограничено!!!

iTunes

1+1

iTunes

мы

WEB-DL

1

iTunes

Чернобыль

iTunes

Ральф против интернета

Лицензия

ПШазам

Лицензия

Оно 2

Лицензия

30
pack

Вам бонус

ВАЖНО

!!Акция!!

Alien_RageХит недели

RePack

Resident Evil 21

ИГРА 18+

pack

RePack

jed

!!Акция!!

Alien_Rage

RePack

fifa19

RePack

Assassins Creed: Odyssey

RePack

NEED FOR SPEED™ PAYBACK

3 сезон

9 сезон

Бесстыжие 9 сезон

Все сериалы

все сериалы на PB.wtf

RePack

FAR CRY 5
Ребята, катастрофически не хватает 1900р. для оплаты серверов за Октябрь (всвязи с блокировками трафик упал в 3 раза), 1-2р., выручайте.
  

Король Лев / The Lion King (Джон Фавро) [2019, мультфильм, мюзикл, драма, UHD BDRip 2160p] Дубляж [iTunes] freegat.top

Король Лев через торрент freegat.top

Раздают: 9 [ 774 KB/s ]
Размер: 23.43 GB | Добавлен: 1 мес. 29 д. назад | Торрент скачан:176 раз
Скачать  

13-10-2019 13:48 Король Лев Скачать торрент  

Король Лев / The Lion King««The King Has Returned»»

Год выпуска: 2019
Страна: США
Жанр: мультфильм, мюзикл, драма, приключения, семейный
Продолжительность: 01:59:33
Перевод: Профессиональный (полное дублирование) | iTunes
Субтитры: русские (Full, SDH), английские
Режиссер: Джон Фавро
В ролях:

Джеймс Эрл Джонс (Mufasa, озвучка), Дональд Гловер (Simba, озвучка), Чиветель Эджиофор (Scar, озвучка), Джон Оливер (Zazu, озвучка), Джон Кани (Rafiki, озвучка), Элфри Вудард (Sarabi, озвучка), Джейдон Маккрэри (Young Simba, озвучка), Шахади Райт Джозеф (Young Nala, озвучка), Пенни Джонсон (Sarafina, озвучка), Кигэн-Майкл Ки (Kamari, озвучка), Эрик Андре (Azizi, озвучка), Флоренс Касумба (Shenzi, озвучка)
Описание:
История об отважном львенке по имени Симба. Знакомые с детства герои взрослеют, влюбляются, познают себя и окружающий мир, совершают ошибки и делают правильный выбор.
Рейтинг:

MPAA: PG - Рекомендуется присутствие родителей
Качество: UHD BDRip 2160p
Формат: MKV
Видео: HEVC HDR, 3840x2160 (16:9), 23.976 fps, ~27,3 Mbps avg
Аудио №1: 48.0 kHz, AC3 Dolby Digital, 3/2 (L,C,R,l,r) + LFE ch, ~384 kbps | RUS
Аудио №2: 48.0 kHz, AC3 Dolby Digital, 3/2 (L,C,R,l,r) + LFE ch, ~640 kbps | ENG
Навигация по главам: есть

General
Unique ID : 124950332723740679581927425186622818381 (0x5E008F0948286F2AC739676720BB484D)
Complete name : \The Lion King.2019.BDRip.2160p.HDR.mkv
Format : Matroska
Format version : Version 4
File size : 23.4 GiB
Duration : 1 h 58 min
Overall bit rate : 28.4 Mb/s
Encoded date : UTC 2019-10-12 13:14:43
Writing application : mkvmerge v22.0.0 ('At The End Of The World') 64-bit
Writing library : libebml v1.3.5 + libmatroska v1.4.8

Video
ID : 1
Format : HEVC
Format/Info : High Efficiency Video Coding
Format profile : Main 10@L5.1@High
HDR format : SMPTE ST 2086, HDR10 compatible
Codec ID : V_MPEGH/ISO/HEVC
Duration : 1 h 58 min
Bit rate : 26.8 Mb/s
Width : 3 840 pixels
Height : 2 160 pixels
Display aspect ratio : 16:9
Frame rate mode : Constant
Frame rate : 23.976 (24000/1001) FPS
Color space : YUV
Chroma subsampling : 4:2:0 (Type 2)
Bit depth : 10 bits
Bits/(Pixel*Frame) : 0.135
Stream size : 22.1 GiB (94%)
Title : HQMUX
Writing library : x265 3.1+11-de920e0a3183:[Windows][GCC 9.1.1][64 bit] 10bit
Encoding settings : rc=abr / bitrate=27589 / qcomp=0.65 / qpstep=4 / vbv-maxrate=160000 / vbv-bufsize=160000 / vbv-init=0.9 / qpmax=69 / qpmin=0 / no-lossless / no-cu-lossless / ipratio=1.40 / pbratio=1.30 / aq-mode=2 / aq-strength=1.00 / psy-rd=2.00 / psy-rdoq=0.00 / rdoq-level=0 / cbqpoffs=0 / crqpoffs=0 / ctu=64 / min-cu-size=8 / ref=3 / limit-refs=1 / no-limit-modes / me=1 / subme=2 / merange=57 / no-hme / rd=3 / no-rd-refine / no-ssim-rd / rdpenalty=0 / deblock=-2:-2 / min-keyint=23 / keyint=250 / bframes=8 / bframe-bias=0 / b-adapt=2 / b-intra / b-pyramid / cutree / max-merge=3 / no-fades / weightp / no-weightb / no-rect / no-amp / no-sao / no-limit-sao / no-sao-non-deblock / early-skip / no-splitrd-skip / rskip / no-tskip / no-tskip-fast / no-fast-intra / scenecut=40 / scenecut-bias=0.05 / rc-lookahead=20 / gop-lookahead=0 / lookahead-slices=8 / max-tu-size=32 / tu-inter-depth=1 / tu-intra-depth=1 / limit-tu=0 / qg-size=32 / radl=0 / open-gop / no-hevc-aq / no-aq-motion / no-dynamic-refine / dynamic-rd=0.00 / nr-intra=0 / nr-inter=0 / no-strong-intra-smoothing / no-constrained-intra / no-strict-cbr / no-const-vbv / no-rc-grain / wpp / no-pmode / no-pme / no-psnr / no-ssim / signhide / stats-write=0 / stats-read=0 / zone-count=0 / input-csp=1 / input-res=3840x2160 / interlace=0 / total-frames=170099 / frame-threads=4 / level-idc=51 / high-tier=1 / uhd-bd=0 / no-analyze-src-pics / no-allow-non-conformance / repeat-headers / annexb / aud / hrd / info / hash=0 / temporal-mvp / no-temporal-layers / no-splice / no-intra-refresh / sar=0 / overscan=0 / videoformat=5 / range=0 / colorprim=9 / transfer=16 / colormatrix=9 / chromaloc=1 / chromaloc-top=2 / chromaloc-bottom=2 / display-window=0 / master-display=G(13250,34500)B(7500,3000)R(34000,16000)WP(15635,16450)L(10000000,1)cll=0,0 / min-luma=1 / max-luma=1000 / log2-max-poc-lsb=8 / vui-timing-info / vui-hrd-info / slices=1 / no-opt-qp-pps / no-opt-ref-list-length-pps / no-multi-pass-opt-rps / no-opt-cu-delta-qp / hdr / hdr-opt / no-dhdr10-opt / no-idr-recovery-sei / analysis-reuse-level=5 / scale-factor=0 / refine-intra=0 / refine-inter=0 / refine-mv=0 / refine-ctu-distortion=0 / refine-analysis-type=0 / ctu-info=0 / copy-pic=1 / max-ausize-factor=1.0 / no-single-sei / no-svt / no-field / no-lowpass-dct / cpuid=1111039 / numa-pools=24 / log-level=2 / qp-adaptation-range=1.00
Language : English
Default : Yes
Forced : No
Color range : Limited
Color primaries : BT.2020
Transfer characteristics : PQ
Matrix coefficients : BT.2020 non-constant
Mastering display color primar : Display P3
Mastering display luminance : min: 0.0001 cd/m2, max: 1000 cd/m2

Audio #1
ID : 2
Format : AC-3
Format/Info : Audio Coding 3
Commercial name : Dolby Digital
Codec ID : A_AC3
Duration : 1 h 58 min
Bit rate mode : Constant
Bit rate : 384 kb/s
Channel(s) : 6 channels
Channel layout : L R C LFE Ls Rs
Sampling rate : 48.0 kHz
Frame rate : 31.250 FPS (1536 SPF)
Bit depth : 16 bits
Compression mode : Lossy
Stream size : 325 MiB (1%)
Title : iTunes
Language : Russian
Service kind : Complete Main
Default : Yes
Forced : Yes

Audio #2
ID : 3
Format : AC-3
Format/Info : Audio Coding 3
Commercial name : Dolby Digital
Codec ID : A_AC3
Duration : 1 h 58 min
Bit rate mode : Constant
Bit rate : 640 kb/s
Channel(s) : 6 channels
Channel layout : L R C LFE Ls Rs
Sampling rate : 48.0 kHz
Frame rate : 31.250 FPS (1536 SPF)
Bit depth : 16 bits
Compression mode : Lossy
Stream size : 541 MiB (2%)
Title : Original
Language : English
Service kind : Complete Main
Default : No
Forced : No

Text #1
ID : 4
Format : UTF-8
Codec ID : S_TEXT/UTF8
Codec ID/Info : UTF-8 Plain Text
Title : Full
Language : Russian
Default : No
Forced : No

Text #2
ID : 5
Format : UTF-8
Codec ID : S_TEXT/UTF8
Codec ID/Info : UTF-8 Plain Text
Title : SDH
Language : Russian
Default : No
Forced : No

Text #3
ID : 6
Format : UTF-8
Codec ID : S_TEXT/UTF8
Codec ID/Info : UTF-8 Plain Text
Title : Full
Language : English
Default : No
Forced : No

Menu
00:00:00.000 : en:"Circle Of Life/Nants' Ingonyama"
00:04:50.499 : en:"Life's Not Fair"
00:10:51.067 : en:"Everything The Light Touches"
00:17:47.692 : en:"I Just Can't Wait To Be King"
00:23:53.015 : en:Elephant Graveyard
00:30:00.132 : en:Under The Stars
00:33:05.066 : en:"Be Prepared"
00:37:09.310 : en:Stampede
00:43:42.912 : en:Scar Takes Over
00:50:47.336 : en:Timon And Pumbaa
00:55:02.716 : en:"Hakuna Matata"
00:59:48.460 : en:Scar's Kingdom
01:06:27.233 : en:"Line Of Indifference"
01:14:32.093 : en:"The Lion Sleeps Tonight"
01:18:26.410 : en:"Can You Feel The Love Tonight"
01:23:07.900 : en:"He Lives In You"
01:28:04.654 : en:"Spirit"
01:33:10.877 : en:Simba Confronts Scar
01:37:13.745 : en:Battle For Pride Rock
01:44:39.190 : en:The Rightful King
01:47:47.336 : en:End Credits/"Never Too Late"
freegat.top



Скачать Король Лев через торрент https://c.radikal.ru/c14/1910/28/7abdf5bb3584.png Скачать фильм Король Лев через торрент бесплантно в хорошем качестве Описание: История об отважном львенке по имени Симба. Знакомые с детства герои взрослеют, влюбляются, познают себя и окружающий мир, ... 9.3 10 9
Торрент: Зарегистрирован [2019-10-13 13:48] · скачан: 176 раз
Статус: √ проверено
Размер: 23.43 GB
Как cкачать? Как скачать Король Лев через торрент | qTorrent

% Раздел Тема Автор DL S | L
Иностранные мультфильмы [ 795 MB ] Король Лев / The Lion King [2019 мультфильм мюзикл HDRip] DUB [] bober100 Скачать
5 | 0
3D Мультфильмы [ 21.18 GB ] Король Лев в 3Д / The Lion King 3D [2019 Мультфильм мюзикл ремейк BDRip 1080p] OverUnder / Вертикальная стереопара serega768 Скачать
1 | 0
Ultra HD (UHD: 2K, 4K, 8K) [ 24.36 GB ] Король Лев / The Lion King [2019 мультфильм мюзикл UHD BDRip 2160p] DUB [] bober100 Скачать
2 | 0
3D Мультфильмы [ 13.45 GB ] Король Лев 3Д / The Lion King 3D [2019 мультфильм мюзикл BDRip 1080p] [Anamorph SideBySide] DUB [] bober100 Скачать
5 | 1
Зарубежные Мультфильмы (BDRip 1080p, 720p, Blu-ray, BD-Remux) [ 7.01 GB ] Король Лев / The Lion King [2019 мультфильм мюзикл BDRip-HEVC 1080p ] DUB [] bober100 Скачать
29 | 0
Иностранные мультфильмы [ 2.36 GB ] Король Лев / The Lion King [2019 мультфильм мюзикл BDRip-AVC] DUB [] - ExKinoRay Enigma2010 Скачать
57 | 7
Зарубежные Мультфильмы (BDRip 1080p, 720p, Blu-ray, BD-Remux) [ 4.71 GB ] Король Лев / The Lion King [2019 мультфильм мюзикл BDRip 720p] DUB [] - ExKinoRay Enigma2010 Скачать
593 | 95

28-11-2019 20:33  

Отключить всю рекламу на сайте

14-10-2019 16:40 Король Лев Скачать торрент  

Хороший мультик, хорошая картинка!
Спасибо за раздачу!freegat.top



    Дорогой пользователь! Огромная просьба, поблагодарите релизера, оцените раздачу и оставьте свои комментарий, если Вы скачали Король Лев через торрент бесплатно! Внесите свою лепту в развитие PiratBit!
    Комментировать посты могут только пользователи прошедшие не сложную регистрацию
    Показать сообщения:    

    Король Лев через торрент
    Скачать бесплатно Король Лев
    Король Лев скачать торрент
    Король Лев смотреть онлайн
    Cкачать фильм Король Лев бесплатно
    Король Лев скачать торрент в хорошем качестве
    Король Лев смотреть онлайн бесплатно в хорошем качестве


    Вы не можете начинать темы
    Вы не можете отвечать на сообщения
    Вы не можете редактировать свои сообщения
    Вы не можете удалять свои сообщения
    Вы не можете голосовать в опросах
    Вы не можете прикреплять файлы к сообщениям
    Вы можете скачивать файлы