Ссылка на приватное зеркало всего за 1$. Внимание количество ограничено!!!

iTunes

1+1

iTunes

мы

MV0

1

WEB-DLRip

Джокер

Пифагор

Ведьмак / The Witcher сериал

iTunes

ПШазам

iTunes

Оно 2

iTunes

30
pack

Вам бонус

ВАЖНО

!!Акция!!

Alien_RageХит недели

RePack

Resident Evil 21

ИГРА 18+

pack

RePack

jed

!!Акция!!

Alien_Rage

RePack

fifa19

RePack

Assassins Creed: Odyssey

RePack

NEED FOR SPEED™ PAYBACK

4 сезон

9 сезон

Бесстыжие 9 сезон

Все сериалы

все сериалы на PB.wtf

RePack

FAR CRY 5
  

Щегол / The Goldfinch (Джон Краули) [2019, драма, BD Remux 1080p] DUB (rus, ukr) [Лицензия] freegat.top

Щегол через торрент freegat.top

Раздают: 1 [ 742 KB/s ]
Размер: 29.8 GB | Добавлен: 3 д. назад | Торрент скачан:4 раза
Скачать  

26-11-2019 21:22 Щегол Скачать торрент  

Щегол | The Goldfinch
Год выпуска: 2019
Страна: США
Студия: Amazon Studios, Color Force, Warner Bros.
Жанр: драма
Продолжительность: 02:29:26
Перевод: Дублированный | Лицензия
Субтитры: Русские (Forced, full), украинские (Forced), английские

Режиссер: Джон Краули

rating

В ролях: Энсел Элгорт, Оакс Фигли, Анейрин Барнард, Финн Вулфард, Сара Полсон, Люк Уилсон, Джеффри Райт, Николь Кидман, Эшли Каммингс, Уилла Фицджералд, Айми Лоуренс, Роберт Джой, Бойд Гейнс, Карли Коннорс, Люк Клеинтенк

Описание: История юного Теодора Деккера, потерявшего мать во время теракта в Метрополитен-музее. Чудом оставшись в живых после взрыва, Тео получает от умирающего старика редкую картину кисти Карела Фабрициуса и кольцо. С этого момента начинается его погружение в подпольный мир искусства

Качество: BD Remux 1080p
Формат: MKV

Видео: MPEG-4 AVC, 1920x1080, 25.8 Mbit/s, 23.976 fps
Аудио #01: 48 kHz, AC3, 5.1, 448 Kbps | Дублированный | RUS |
Аудио #02: 48 kHz, AC3, 2.0, 160 Kbps | Дублированный | UKR |
Аудио #03: 48 kHz, DTS-HD MA, 5.1, 2175 Kbps | Оригинал | ENG |
скриншот  скриншот  скриншот  скриншот  скриншот  

General
Unique ID : 52991087220445312760705488774967345041 (0x27DDB65088AADED789F597C7D1D43F91)
Complete name : E:Video111The.Goldfinch.2019.Lic.BDREMUX.1080p.seleZen.mkv
Format : Matroska
Format version : Version 4
File size : 29.8 GiB
Duration : 2 h 29 min
Overall bit rate mode : Variable
Overall bit rate : 28.6 Mb/s
Movie name : The Goldfinch 2019 from селезень
Encoded date : UTC 2020-02-15 10:54:24
Writing application : mkvmerge v40.0.0 ('Old Town Road + Pony') 64-bit
Writing library : libebml v1.3.9 + libmatroska v1.5.2

Video
ID : 1
Format : AVC
Format/Info : Advanced Video Codec
Format profile : High@L4.1
Format settings : CABAC / 4 Ref Frames
Format settings, CABAC : Yes
Format settings, Reference : 4 frames
Codec ID : V_MPEG4/ISO/AVC
Duration : 2 h 29 min
Bit rate mode : Variable
Bit rate : 25.8 Mb/s
Maximum bit rate : 34.0 Mb/s
Width : 1 920 pixels
Height : 1 080 pixels
Display aspect ratio : 16:9
Frame rate mode : Constant
Frame rate : 23.976 (24000/1001) FPS
Color space : YUV
Chroma subsampling : 4:2:0
Bit depth : 8 bits
Scan type : Progressive
Bits/(Pixel*Frame) : 0.518
Stream size : 26.9 GiB (90%)
Language : English
Default : Yes
Forced : No

Audio #1
ID : 2
Format : AC-3
Format/Info : Audio Coding 3
Commercial name : Dolby Digital
Codec ID : A_AC3
Duration : 2 h 29 min
Bit rate mode : Constant
Bit rate : 448 kb/s
Channel(s) : 6 channels
Channel layout : L R C LFE Ls Rs
Sampling rate : 48.0 kHz
Frame rate : 31.250 FPS (1536 SPF)
Compression mode : Lossy
Stream size : 479 MiB (2%)
Title : Dub [License]
Language : Russian
Service kind : Complete Main
Default : Yes
Forced : Yes

Audio #2
ID : 3
Format : AC-3
Format/Info : Audio Coding 3
Commercial name : Dolby Digital
Codec ID : A_AC3
Duration : 2 h 29 min
Bit rate mode : Constant
Bit rate : 160 kb/s
Channel(s) : 2 channels
Channel layout : L R
Sampling rate : 48.0 kHz
Frame rate : 31.250 FPS (1536 SPF)
Compression mode : Lossy
Stream size : 171 MiB (1%)
Title : iTunes
Language : Ukrainian
Service kind : Complete Main
Default : No
Forced : No

Audio #3
ID : 4
Format : DTS XLL
Format/Info : Digital Theater Systems
Commercial name : DTS-HD Master Audio
Codec ID : A_DTS
Duration : 2 h 29 min
Bit rate mode : Variable
Bit rate : 2 175 kb/s
Channel(s) : 6 channels
Channel layout : C L R Ls Rs LFE
Sampling rate : 48.0 kHz
Frame rate : 93.750 FPS (512 SPF)
Bit depth : 16 bits
Compression mode : Lossless
Stream size : 2.27 GiB (8%)
Title : Original
Language : English
Default : No
Forced : No

Text #1
ID : 5
Format : UTF-8
Codec ID : S_TEXT/UTF8
Codec ID/Info : UTF-8 Plain Text
Duration : 2 h 19 min
Bit rate : 1 b/s
Count of elements : 16
Stream size : 1.06 KiB (0%)
Title : Forced
Language : Russian
Default : Yes
Forced : Yes

Text #2
ID : 6
Format : UTF-8
Codec ID : S_TEXT/UTF8
Codec ID/Info : UTF-8 Plain Text
Duration : 2 h 28 min
Bit rate : 73 b/s
Count of elements : 1699
Stream size : 80.0 KiB (0%)
Title : Full
Language : Russian
Default : No
Forced : No

Text #3
ID : 7
Format : UTF-8
Codec ID : S_TEXT/UTF8
Codec ID/Info : UTF-8 Plain Text
Duration : 2 h 26 min
Bit rate : 0 b/s
Count of elements : 17
Stream size : 1.07 KiB (0%)
Title : Forced
Language : Ukrainian
Default : No
Forced : No

Text #4
ID : 8
Format : UTF-8
Codec ID : S_TEXT/UTF8
Codec ID/Info : UTF-8 Plain Text
Duration : 2 h 20 min
Bit rate : 46 b/s
Count of elements : 1716
Stream size : 47.8 KiB (0%)
Title : Full
Language : English
Default : No
Forced : No

Menu
00:00:00.000 : en:00:00:00.000
00:10:12.821 : en:00:10:12.821
00:18:52.673 : en:00:18:52.673
00:29:06.662 : en:00:29:06.662
00:38:02.947 : en:00:38:02.947
00:48:50.886 : en:00:48:50.886
00:57:58.684 : en:00:57:58.684
01:07:23.706 : en:01:07:23.706
01:13:11.596 : en:01:13:11.596
01:21:32.387 : en:01:21:32.387
01:30:45.774 : en:01:30:45.774
01:40:34.695 : en:01:40:34.695
01:47:09.632 : en:01:47:09.632
01:59:06.890 : en:01:59:06.890
02:04:56.197 : en:02:04:56.197
02:11:11.864 : en:02:11:11.864
02:21:56.425 : en:02:21:56.425

freegat.top



Скачать Щегол через торрент https://img16.lostpic.net/2019/11/27/6b3ca4c65afbe97a04305c0624bac185.jpg Скачать фильм Щегол через торрент бесплантно в хорошем качестве Описание: История юного Теодора Деккера, потерявшего мать во время теракта в Метрополитен-музее. Чудом оставшись в живых после взрыва, Тео ... 10 10 3
Торрент: Зарегистрирован [2020-02-15 11:17] · скачан: 4 раз
Статус: √ проверено
Размер: 29.8 GB
Как cкачать? Как скачать Щегол через торрент | qTorrent

% Раздел Тема Автор DL S | L
Фильмы 2019-2020 [DVDrip, WEB-DLRip, HDrip] (DUB, MVO) [ 2.18 GB ] Щегол / The Goldfinch [2019 BDRip] - [] Twi7ter Скачать
84 | 4
Фильмы 2019-2020 [DVDrip, WEB-DLRip, HDrip] (DUB, MVO) [ 1.46 GB ] Щегол / The Goldfinch [2019 BDRip] - [] Twi7ter Скачать
98 | 8
Фильмы (Blu-ray, BD-Remux, HDDVD) [ 38.46 GB ] Щегол / The Goldfinch [2019 Blu-ray EUR 1080p] DUB [] bober100 Скачать
2 | 0
Фильмы 2019-2020 [DVDrip, WEB-DLRip, HDrip] (DUB, MVO) [ 2.18 GB ] Щегол / The Goldfinch [2019 BDRip] DUB [] bober100 Скачать
14 | 2
Фильмы [HD 720p, 1080p] (Хороший звук DUB, MVO) [ 4.26 GB ] Щегол / The Goldfinch [2019 BDRip 1080p HEVC ] Мичман37 Скачать
10 | 1
Фильмы 2019-2020 [DVDrip, WEB-DLRip, HDrip] (DUB, MVO) [ 2.51 GB ] Щегол / The Goldfinch [2019 BDRip-AVC] bober100 Скачать
8 | 0
Фильмы [HD 720p, 1080p] (Хороший звук DUB, MVO) [ 8.76 GB ] Щегол / The Goldfinch [2019 BDRip 720p] DUB [] bober100 Скачать
4 | 0

28-11-2019 20:33  

Отключить всю рекламу на сайте

    Дорогой пользователь! Огромная просьба, поблагодарите релизера, оцените раздачу и оставьте свои комментарий, если Вы скачали Щегол через торрент бесплатно! Внесите свою лепту в развитие PiratBit!
    Комментировать посты могут только пользователи прошедшие не сложную регистрацию
    Показать сообщения:    

    Щегол через торрент
    Скачать бесплатно Щегол
    Щегол скачать торрент
    Щегол смотреть онлайн
    Cкачать фильм Щегол бесплатно
    Щегол скачать торрент в хорошем качестве
    Щегол смотреть онлайн бесплатно в хорошем качестве


    Вы не можете начинать темы
    Вы не можете отвечать на сообщения
    Вы не можете редактировать свои сообщения
    Вы не можете удалять свои сообщения
    Вы не можете голосовать в опросах
    Вы не можете прикреплять файлы к сообщениям
    Вы можете скачивать файлы