Ссылка на приватное зеркало всего за 1$. Внимание количество ограничено!!!

OK

1+1

iTunes

мы

OK

1

WEB-DLRip

Джокер

Пифагор

Ведьмак / The Witcher сериал

Лицензия

ПШазам

ОК

Оно 2

iTunes

30
pack

Вам бонус

ВАЖНО

!!Акция!!

Alien_RageХит недели

RePack

Resident Evil 21

ИГРА 18+

pack

RePack

jed

!!Акция!!

Alien_Rage

RePack

fifa19

RePack

Assassins Creed: Odyssey

RePack

NEED FOR SPEED™ PAYBACK

4 сезон

9 сезон

Бесстыжие 9 сезон

Все сериалы

все сериалы на PB.wtf

RePack

FAR CRY 5
  

Пушистый шпион / Marnies Welt (Кристоф Лауэнштайн, Вольфганг Лауэнштайн) [2018, мультфильм, приключения, семейный, WEBRip 1080p] 2x[Dub] (Rus, Ukr) freegat.top

Пушистый шпион через торрент freegat.top

Раздают: 8 [ 0 KB/s ] Качают: 1 [ 0 KB/s ]
Размер: 3.74 GB | Добавлен: 1 мес. 12 д. назад | Торрент скачан:149 раз
Скачать  

09-12-2019 08:30 Пушистый шпион Скачать торрент  

Пушистый шпион/ Marnies Welt«Найти и обезвредить!» Год выпуска: 2018
Страна: Германия, Бельгия
Жанр: мультфильм, приключения, семейный
Продолжительность: 01:32:03
Перевод: Профессиональный (Дублированный)




Режиссёр: Кристоф Лауэнштайн / Christoph Lauenstein, Вольфганг Лауэнштайн / Wolfgang Lauenstein
Роли озвучивали: Эрик Борнер, Александра Нелдель, Аксель Праль, Сильвен Урбан

Роли дублировали: Кирилл Дмитриев
Описание: Избалованная рыжая кошечка Марни живет в доме со своей хозяйкой в тепле и уюте и в ус не дует. Но ее жизнь радикально меняется, когда она становится жертвой грабителей-преступников, которые отправляют ее в коробке в другой город. В дороге коробка теряется и Марни оказывается где-то в глухой деревне, один на один с реальной жизнью. Она встречает Пса, Петуха и Осла и тут начинаются приключения... Марни и ее новым друзьям предстоит найти того, кто стоит за загадочными ограблениями в городе и обезвредить эту банду.
rating

Качество: WEBRip 1080p
Формат: MKV
Видео кодек: AVC
Аудио кодек: AAC
Видео: 1920x1080, 24 fps, ~5120 kbps avg, 0.103 bit/pixel
Аудио #1: [RUS] 48kHz, AAC, 6 ch, 512 kbps
Аудио #2: [UKR] 44,1kHz, AAC, 2 ch, 192 kbps
субтитры: русские
скриншот  скриншот  скриншот  
Общее
Уникальный идентификатор : 149972639514086870188901007644802894060 (0x70D3AE02A5C0C7AFF80D2C2B079348EC)
Полное имя : D:\Mult\Marnies Welt.2018.WEBRip 1080p.mkv
Формат : Matroska
Версия формата : Version 4 / Version 2
Размер файла : 3,74 Гбайт
Продолжительность : 1 ч. 32 м.
Общий поток : 5820 Кбит/сек
Дата кодирования : UTC 2019-12-09 07:11:12
Программа кодирования : mkvmerge v40.0.0 ('Old Town Road + Pony') 64-bit
Библиотека кодирования : libebml v1.3.9 + libmatroska v1.5.2

Видео
Идентификатор : 1
Формат : AVC
Формат/Информация : Advanced Video Codec
Профиль формата : High@L4
Настройки формата : CABAC / 4 Ref Frames
Параметр CABAC формата : Да
Параметр RefFrames формата : 4 кадра
Идентификатор кодека : V_MPEG4/ISO/AVC
Продолжительность : 1 ч. 32 м.
Битрейт : 5120 Кбит/сек
Ширина : 1920 пикселей
Высота : 1080 пикселей
Соотношение сторон : 16:9
Режим частоты кадров : Постоянный
Частота кадров : 24,000 кадра/сек
Цветовое пространство : YUV
Субдискретизация насыщенности : 4:2:0
Битовая глубина : 8 бит
Тип развёртки : Прогрессивная
Бит/(Пиксели*Кадры) : 0.103
Размер потока : 3,29 Гбайт (88%)
Библиотека кодирования : x264 core 148
Настройки программы : cabac=1 / ref=3 / deblock=1:0:0 / analyse=0x3:0x113 / me=hex / subme=7 / psy=1 / psy_rd=1.00:0.00 / mixed_ref=1 / me_range=16 / chroma_me=1 / trellis=1 / 8x8dct=1 / cqm=0 / deadzone=21,11 / fast_pskip=1 / chroma_qp_offset=-2 / threads=34 / lookahead_threads=5 / sliced_threads=0 / nr=0 / decimate=1 / interlaced=0 / bluray_compat=0 / constrained_intra=0 / bframes=6 / b_pyramid=2 / b_adapt=1 / b_bias=0 / direct=1 / weightb=1 / open_gop=0 / weightp=2 / keyint=48 / keyint_min=25 / scenecut=0 / intra_refresh=0 / rc_lookahead=40 / rc=2pass / mbtree=1 / bitrate=5120 / ratetol=1.0 / qcomp=0.60 / qpmin=0 / qpmax=69 / qpstep=4 / cplxblur=20.0 / qblur=0.5 / vbv_maxrate=7680 / vbv_bufsize=20480 / nal_hrd=none / filler=0 / ip_ratio=1.40 / aq=1:1.00
Default : Да
Forced : Нет

Аудио #1
Идентификатор : 2
Формат : AAC
Формат/Информация : Advanced Audio Codec
Профиль формата : LC
Идентификатор кодека : A_AAC-2
Продолжительность : 1 ч. 32 м.
Битрейт : 512 Кбит/сек
Каналы : 6 каналов
Расположение каналов : Front: L C R, Side: L R, LFE
Частота : 48,0 КГц
Частота кадров : 46,875 кадров/сек (1024 SPF)
Метод сжатия : С потерями
Задержка видео : -43 мс.
Размер потока : 337 Мбайт (9%)
Заголовок : DUB
Язык : Russian
Default : Да
Forced : Нет

Аудио #2
Идентификатор : 3
Формат : AAC
Формат/Информация : Advanced Audio Codec
Профиль формата : LC
Идентификатор кодека : A_AAC-2
Продолжительность : 1 ч. 31 м.
Битрейт : 192 Кбит/сек
Каналы : 2 канала
Расположение каналов : Front: L R
Частота : 44,1 КГц
Частота кадров : 43,066 кадра/сек (1024 SPF)
Метод сжатия : С потерями
Задержка видео : -43 мс.
Размер потока : 124 Мбайт (3%)
Заголовок : UKR
Язык : Ukrainian
Default : Нет
Forced : Нет

Текст
Идентификатор : 4
Формат : UTF-8
Идентификатор кодека : S_TEXT/UTF8
Идентификатор кодека/Информация : UTF-8 Plain Text
Продолжительность : 1 ч. 23 м.
Битрейт : 91 бит/сек
ElementCount : 834
Размер потока : 55,7 Кбайт (0%)
Заголовок : Rus Sub
Язык : Russian
Default : Нет
Forced : Нет
freegat.top



Скачать Пушистый шпион через торрент https://i111.fastpic.ru/big/2019/1209/77/e108be5df57099a30502da3d8d2e7877.jpg Скачать фильм Пушистый шпион через торрент бесплантно в хорошем качестве Описание: Избалованная рыжая кошечка Марни живет в доме со своей хозяйкой в тепле и уюте и в ус не дует. Но ее жизнь радикально меняется, ... 10 10 4
Торрент: Зарегистрирован [2019-12-09 08:30] · скачан: 149 раз
Статус: √ проверено
Размер: 3.74 GB
Как cкачать? Как скачать Пушистый шпион через торрент | qTorrent

% Раздел Тема Автор DL S | L
Зарубежные Мультфильмы (WEB-DL 720p, 1080p) [ 3.58 GB ] Пушистый шпион / Marnie's World / Marnies Welt [2018 мультфильм WEB-DL 1080p] bober100 Скачать
14 | 0
Иностранные мультфильмы [ 1.46 GB ] Пушистый шпион / Marnies Welt [2018 мультфильм WEB-DLRip] killermax2013 Скачать
6 | 0

28-11-2019 20:33  

Отключить всю рекламу на сайте

    Дорогой пользователь! Огромная просьба, поблагодарите релизера, оцените раздачу и оставьте свои комментарий, если Вы скачали Пушистый шпион через торрент бесплатно! Внесите свою лепту в развитие PiratBit!
    Комментировать посты могут только пользователи прошедшие не сложную регистрацию
    Показать сообщения:    

    Пушистый шпион через торрент
    Скачать бесплатно Пушистый шпион
    Пушистый шпион скачать торрент
    Пушистый шпион смотреть онлайн
    Cкачать фильм Пушистый шпион бесплатно
    Пушистый шпион скачать торрент в хорошем качестве
    Пушистый шпион смотреть онлайн бесплатно в хорошем качестве


    Вы не можете начинать темы
    Вы не можете отвечать на сообщения
    Вы не можете редактировать свои сообщения
    Вы не можете удалять свои сообщения
    Вы не можете голосовать в опросах
    Вы не можете прикреплять файлы к сообщениям
    Вы можете скачивать файлы