Ссылка на приватное зеркало всего за 1$. Внимание количество ограничено!!!

OK

1+1

iTunes

мы

OK

1

WEB-DLRip

Джокер

Пифагор

Ведьмак / The Witcher сериал

Лицензия

ПШазам

ОК

Оно 2

iTunes

30
pack

Вам бонус

ВАЖНО

!!Акция!!

Alien_RageХит недели

RePack

Resident Evil 21

ИГРА 18+

pack

RePack

jed

!!Акция!!

Alien_Rage

RePack

fifa19

RePack

Assassins Creed: Odyssey

RePack

NEED FOR SPEED™ PAYBACK

4 сезон

9 сезон

Бесстыжие 9 сезон

Все сериалы

все сериалы на PB.wtf

RePack

FAR CRY 5
  

Секс в другом городе: Поколение Q / The L Word: Generation Q / Сезон: 1 / Серии: 1-6 из 8 (Сара Пиа Андерсон, Стеф Грин, Эллисон Лидди) [2019, драма, мелодрама, WEB-DL 720p] MVO [Jaskier] freegat.top

Секс в другом городе: Поколение Q через торрент freegat.top

Размер: 10.17 GB | Добавлен: 5 д. назад | Торрент скачан:1 раз
Скачать  

10-12-2019 21:53 Секс в другом городе: Поколение Q Скачать торрент  

Секс в другом городе: Поколение Q / The L Word: Generation Q
Год выпуска: 2019
Студия: Captivate Entertainment, Imperative Entertainment, Pioneer Stilking Films
Страна: США
Жанр: драма, мелодрама
Продолжительность: ~ 00:43:00 серия
Перевод: Профессиональный (многоголосый) | Jaskier
Субтитры: Английские

Режиссер: Сара Пиа Андерсон, Стеф Грин, Эллисон Лидди

rating

В ролях: Дженнифер Билз, Лейша Хейли, Кэтрин Менниг, Арьенн Мэнди, Сепиде Моафи, Лео Шенг, Жаклин Тобони, Росанни Зайас, Стефани Аллен, Брайан Майкл и др.

Описание: Шоу рассказывает, как сложились судьбы Бетти, Элис и Шейн, а также знакомит с новыми девушками. В основе сюжета — женщины нетрадиционной сексуальной ориентации и их взаимоотношения с друзьями, коллегами, семьями и возлюбленными.

Качество: WEB-DL 720p
Формат: | X264 | MKV |

Видео: ~ 4100 kbps, 1280x720, 23.976 fps
Аудио#1 Rus: AC3, 6 ch, 384 kbps
Аудио#2 Eng: AC3, 6 ch, 384 kbps
скриншот  скриншот  скриншот  

Общее
Уникальный идентификатор : 188340282727866866040529595109915266812 (0x8DB104DEC1AF5514BA8519438C288EFC)
Полное имя : D:\The L Word Generation Q. Season 1 (WEB-DL l 720p l Jaskier)\The.L.Word.Generation.Q.S01E01.720p.WEB-DL.DD5.1.H.264-Jaskier.mkv
Формат : Matroska
Версия формата : Version 2
Размер файла : 1,86 Гбайт
Продолжительность : 54 м. 37 с.
Общий поток : 4884 Кбит/сек
Дата кодирования : UTC 2019-12-10 21:01:16
Программа кодирования : mkvmerge v7.8.0 ('River Man') 32bit built on Apr 3 2015 12:11:22
Библиотека кодирования : libebml v1.3.1 + libmatroska v1.4.2

Видео
Идентификатор : 1
Формат : AVC
Формат/Информация : Advanced Video Codec
Профиль формата : High@L3.1
Параметр CABAC формата : Да
Параметр RefFrames формата : 4 кадра
Идентификатор кодека : V_MPEG4/ISO/AVC
Продолжительность : 54 м. 37 с.
Вид битрейта : Постоянный
Битрейт : 4019 Кбит/сек
Номинальный битрейт : 6000 Кбит/сек
Ширина : 1280 пикселей
Высота : 720 пикселей
Соотношение сторон : 16:9
Режим частоты кадров : Постоянный
Частота кадров : 23,976 (24000/1001) кадра/сек
Цветовое пространство : YUV
Субдискретизация насыщенности : 4:2:0
Битовая глубина : 8 бит
Тип развёртки : Прогрессивная
Бит/(Пиксели*Кадры) : 0.182
Размер потока : 1,53 Гбайт (82%)
Язык : English
Default : Да
Forced : Нет
Цветовой диапазон : Limited
Основные цвета : BT.709
Характеристики трансфера : BT.709
Коэффициенты матрицы : BT.709

Аудио #1
Идентификатор : 2
Формат : AC-3
Формат/Информация : Audio Coding 3
Расширение режима : CM (complete main)
Параметр Endianness формата : Big
Идентификатор кодека : A_AC3
Продолжительность : 54 м. 37 с.
Вид битрейта : Постоянный
Битрейт : 384 Кбит/сек
Каналы : 6 каналов
Расположение каналов : Front: L C R, Side: L R, LFE
Частота : 48,0 КГц
Частота кадров : 31,250 кадров/сек (1536 spf)
Метод сжатия : С потерями
Размер потока : 150 Мбайт (8%)
Заголовок : Jaskier
Язык : Russian
Default : Да
Forced : Нет

Аудио #2
Идентификатор : 3
Формат : AC-3
Формат/Информация : Audio Coding 3
Расширение режима : CM (complete main)
Параметр Endianness формата : Big
Идентификатор кодека : A_AC3
Продолжительность : 54 м. 37 с.
Вид битрейта : Постоянный
Битрейт : 384 Кбит/сек
Каналы : 6 каналов
Расположение каналов : Front: L C R, Side: L R, LFE
Частота : 48,0 КГц
Частота кадров : 31,250 кадров/сек (1536 spf)
Метод сжатия : С потерями
Размер потока : 150 Мбайт (8%)
Язык : English
Default : Нет
Forced : Нет

Текст
Идентификатор : 4
Формат : UTF-8
Идентификатор кодека : S_TEXT/UTF8
Идентификатор кодека/Информация : UTF-8 Plain Text
Язык : English
Default : Нет
Forced : Нет

Когда раздача ведётся путём добавления новых серий, при каждом добавлении создётся новый торрент. Чтобы начать докачку новой серии, пользователям необходимо сделать следующее:
(1) остановить скачивание,
(2) удалить старый торрент у себя из клиента (старые серии удалять не надо),
(3) скачать новый торрент и запустить его у себя в клиенте вместо старого, при этом указать клиенту путь в старую папку, куда и должно происходить скачивание новых серий.
Ваш клиент при этом должен произвести хеширование (проверку) старой папки (если не производит сам - помогите ему сделать это), и будет докачивать только те серии, которых у вас ещё нет. Старые серии при этом не удаляются, а продолжают раздаваться!
Eсли вы уже удалили старые серии, то предотвратить повторную закачку старых серий можно, отжав галочку в соответсвующих местах при запуске нового торрента. По возможности, желательно не удалять старые серии как можно дольше, чтобы релизёр не столько продолжал раздавать старые серии, а смог сконцентрироваться на новых.
freegat.top



Скачать Секс в другом городе: Поколение Q через торрент https://img15.lostpic.net/2019/12/11/7fe3e6cfe466bed4f47060a27b092aa6.png Скачать фильм Секс в другом городе: Поколение Q через торрент бесплантно в хорошем качестве Описание: Шоу рассказывает, как сложились судьбы Бетти, Элис и Шейн, а также знакомит с новыми девушками. В основе сюжета — женщины ... 7.8 10 4
Торрент: Зарегистрирован [2020-01-14 14:07] · скачан: 1 раз
Статус: √ проверено
Размер: 10.17 GB
Как cкачать? Как скачать Секс в другом городе: Поколение Q через торрент | qTorrent

% Раздел Тема Автор DL S | L
Зарубежные сериалы [ 21.47 GB ] Секс в другом городе: Поколение Q / The L Word: Generation Q / Сезон: 1 / Серии: 1-6 из 8 [2019 WEB-DL 1080p] MVO [TVShows] bober100 Скачать
6 | 8
Зарубежные сериалы [ 20.89 GB ] Секс в другом городе: Поколение Q / The L Word: Generation Q / Сезон: 1 / Серии: 1-6 из 8 [2019 WEB-DL 1080p] MVO [Jaskier] bober100 Скачать
1 | 0
Зарубежные сериалы [ 3.77 GB ] Секс в другом городе: Поколение Q / The L Word: Generation Q / Сезон: 1 / Серии: 1-6 из 8 [2019 WEB-DLRip] MVO [Jaskier] bober100 Скачать
1 | 1

28-11-2019 20:33  

Отключить всю рекламу на сайте

    Дорогой пользователь! Огромная просьба, поблагодарите релизера, оцените раздачу и оставьте свои комментарий, если Вы скачали Секс в другом городе: Поколение Q через торрент бесплатно! Внесите свою лепту в развитие PiratBit!
    Комментировать посты могут только пользователи прошедшие не сложную регистрацию
    Показать сообщения:    

    Секс в другом городе: Поколение Q через торрент
    Скачать бесплатно Секс в другом городе: Поколение Q
    Секс в другом городе: Поколение Q скачать торрент
    Секс в другом городе: Поколение Q смотреть онлайн
    Cкачать фильм Секс в другом городе: Поколение Q бесплатно
    Секс в другом городе: Поколение Q скачать торрент в хорошем качестве
    Секс в другом городе: Поколение Q смотреть онлайн бесплатно в хорошем качестве


    Вы не можете начинать темы
    Вы не можете отвечать на сообщения
    Вы не можете редактировать свои сообщения
    Вы не можете удалять свои сообщения
    Вы не можете голосовать в опросах
    Вы не можете прикреплять файлы к сообщениям
    Вы можете скачивать файлы