Ссылка на приватное зеркало всего за 1$. Внимание количество ограничено!!!

OK

1+1

iTunes

мы

OK

1

WEB-DLRip

Джокер

Пифагор

Ведьмак / The Witcher сериал

Лицензия

ПШазам

ОК

Оно 2

iTunes

30
pack

Вам бонус

ВАЖНО

!!Акция!!

Alien_RageХит недели

RePack

Resident Evil 21

ИГРА 18+

pack

RePack

jed

!!Акция!!

Alien_Rage

RePack

fifa19

RePack

Assassins Creed: Odyssey

RePack

NEED FOR SPEED™ PAYBACK

4 сезон

9 сезон

Бесстыжие 9 сезон

Все сериалы

все сериалы на PB.wtf

RePack

FAR CRY 5
  

Работа над собой / Work in Progress / Сезон: 1 / Серии: 1-6 из 8 (Тим Мэйсон) [2019, Комедия, WEBRip 1080p] MVO [TVShows] freegat.top

Работа над собой через торрент freegat.top

Размер: 9.37 GB | Добавлен: 6 д. назад | Торрент скачан:1 раз
Скачать  

11-12-2019 11:34 Работа над собой Скачать торрент  

Работа над собой | Work in Progress Год выпуска: 2019
Страна: США
Жанр: Комедия
Продолжительность: ~00:24:00
Перевод: Профессиональный (многоголосый) | TVShows
Субтитры: Английские

Режиссер: Тим Мэйсон

rating

В ролях: Лорен Витери, Эчака Агба, Жерар Нежан, Кенни Расмуссен, Арман Филдс, Селеста Печос, Карин Энглин, Эбби МакЭнани, Джулия Суини, Тео Джермейн

Описание: История Эбби, 45-летней лесбиянки, чья внешность не вписывается в стандарты красоты, а жизнь полна разочарований. Однако и на ее улице наступает праздник: новые отношения, которые полностью меняют ее как личность.

Качество: WEBRip 1080p
Формат: MKV

Видео: MPEG-4 AVC, 1920x1080, 23.976 fps, ~7137 kbps
Аудио#1: Русский, AC3, 48 kHz, 6 ch, 384 kbps
Аудио#2: Английский, E-AC3, 48 kHz, 6 ch, 640 kbps
скриншот  скриншот  скриншот  скриншот  

General
Unique ID : 238843586528792700979998372615780573182 (0xB3AF99FE0160D0B9B62C8A7DB6001FFE)
Complete name : Work.In.Progress.S01E01.1080p.TVShows.mkv
Format : Matroska
Format version : Version 4
File size : 1.35 GiB
Duration : 23 min 41 s
Overall bit rate : 8 162 kb/s
Encoded date : UTC 2019-12-11 08:38:19
Writing application : mkvmerge v33.1.0 ('Primrose') 64-bit
Writing library : libebml v1.3.7 + libmatroska v1.5.0

Video
ID : 1
Format : AVC
Format/Info : Advanced Video Codec
Format profile : High@L4
Format settings : CABAC / 4 Ref Frames
Format settings, CABAC : Yes
Format settings, Reference frames : 4 frames
Codec ID : V_MPEG4/ISO/AVC
Duration : 23 min 41 s
Bit rate mode : Constant
Bit rate : 7 137 kb/s
Nominal bit rate : 10 000 kb/s
Width : 1 920 pixels
Height : 1 080 pixels
Display aspect ratio : 16:9
Frame rate mode : Constant
Frame rate : 23.976 (24000/1001) FPS
Color space : YUV
Chroma subsampling : 4:2:0
Bit depth : 8 bits
Scan type : Progressive
Bits/(Pixel*Frame) : 0.144
Stream size : 1.18 GiB (87%)
Default : Yes
Forced : No
Color range : Limited
Color primaries : BT.709
Transfer characteristics : BT.709
Matrix coefficients : BT.709

Audio #1
ID : 2
Format : AC-3
Format/Info : Audio Coding 3
Commercial name : Dolby Digital
Codec ID : A_AC3
Duration : 23 min 41 s
Bit rate mode : Constant
Bit rate : 384 kb/s
Channel(s) : 6 channels
Channel layout : L R C LFE Ls Rs
Sampling rate : 48.0 kHz
Frame rate : 31.250 FPS (1536 SPF)
Compression mode : Lossy
Stream size : 65.1 MiB (5%)
Title : TVShows
Language : Russian
Service kind : Complete Main
Default : Yes
Forced : Yes

Audio #2
ID : 3
Format : E-AC-3
Format/Info : Enhanced AC-3
Commercial name : Dolby Digital Plus
Codec ID : A_EAC3
Duration : 23 min 41 s
Bit rate mode : Constant
Bit rate : 640 kb/s
Channel(s) : 6 channels
Channel layout : L R C LFE Ls Rs
Sampling rate : 48.0 kHz
Frame rate : 31.250 FPS (1536 SPF)
Compression mode : Lossy
Delay relative to video : 18 ms
Stream size : 108 MiB (8%)
Title : Original
Language : English
Service kind : Complete Main
Default : No
Forced : No

Text
ID : 4
Format : UTF-8
Codec ID : S_TEXT/UTF8
Codec ID/Info : UTF-8 Plain Text
Duration : 22 min 27 s
Bit rate : 88 b/s
Count of elements : 511
Stream size : 14.5 KiB (0%)
Title : English
Language : English
Default : No
Forced : No

Когда раздача ведётся путём добавления новых серий, при каждом добавлении создётся новый торрент. Чтобы начать докачку новой серии, пользователям необходимо сделать следующее:
(1) остановить скачивание,
(2) удалить старый торрент у себя из клиента (старые серии удалять не надо),
(3) скачать новый торрент и запустить его у себя в клиенте вместо старого, при этом указать клиенту путь в старую папку, куда и должно происходить скачивание новых серий.
Ваш клиент при этом должен произвести хеширование (проверку) старой папки (если не производит сам - помогите ему сделать это), и будет докачивать только те серии, которых у вас ещё нет. Старые серии при этом не удаляются, а продолжают раздаваться!
Eсли вы уже удалили старые серии, то предотвратить повторную закачку старых серий можно, отжав галочку в соответсвующих местах при запуске нового торрента. По возможности, желательно не удалять старые серии как можно дольше, чтобы релизёр не столько продолжал раздавать старые серии, а смог сконцентрироваться на новых.
freegat.top



Скачать Работа над собой через торрент https://i111.fastpic.ru/big/2019/1211/c2/3b428b9fa00ec27f1b9dd7b6d367e9c2.jpg Скачать фильм Работа над собой через торрент бесплантно в хорошем качестве Описание: История Эбби, 45-летней лесбиянки, чья внешность не вписывается в стандарты красоты, а жизнь полна разочарований. Однако и на ее ... 10 10 2
Торрент: Зарегистрирован [2020-01-14 09:36] · скачан: 1 раз
Статус: √ проверено
Размер: 9.37 GB
Как cкачать? Как скачать Работа над собой через торрент | qTorrent

28-11-2019 20:33  

Отключить всю рекламу на сайте

    Дорогой пользователь! Огромная просьба, поблагодарите релизера, оцените раздачу и оставьте свои комментарий, если Вы скачали Работа над собой через торрент бесплатно! Внесите свою лепту в развитие PiratBit!
    Комментировать посты могут только пользователи прошедшие не сложную регистрацию
    Показать сообщения:    

    Работа над собой через торрент
    Скачать бесплатно Работа над собой
    Работа над собой скачать торрент
    Работа над собой смотреть онлайн
    Cкачать фильм Работа над собой бесплатно
    Работа над собой скачать торрент в хорошем качестве
    Работа над собой смотреть онлайн бесплатно в хорошем качестве


    Вы не можете начинать темы
    Вы не можете отвечать на сообщения
    Вы не можете редактировать свои сообщения
    Вы не можете удалять свои сообщения
    Вы не можете голосовать в опросах
    Вы не можете прикреплять файлы к сообщениям
    Вы можете скачивать файлы