Ссылка на приватное зеркало всего за 1$. Внимание количество ограничено!!!

OK

1+1

iTunes

мы

OK

1

WEB-DLRip

Джокер

Пифагор

Ведьмак / The Witcher сериал

Лицензия

ПШазам

ОК

Оно 2

iTunes

30
pack

Вам бонус

ВАЖНО

!!Акция!!

Alien_RageХит недели

RePack

Resident Evil 21

ИГРА 18+

pack

RePack

jed

!!Акция!!

Alien_Rage

RePack

fifa19

RePack

Assassins Creed: Odyssey

RePack

NEED FOR SPEED™ PAYBACK

4 сезон

9 сезон

Бесстыжие 9 сезон

Все сериалы

все сериалы на PB.wtf

RePack

FAR CRY 5
  

Королевские каникулы / Trouble (Кевин Джонсон) [2019, Мультфильм, комедия, семейный, WEB-DL 1080p] DUB [iTunes] freegat.top

Королевские каникулы через торрент freegat.top

Раздают: 27 [ 274 KB/s ]
Размер: 3.36 GB | Добавлен: 1 мес. 3 д. назад | Торрент скачан:303 раза
Скачать  

15-12-2019 20:35 Королевские каникулы Скачать торрент  

Королевские каникулы / Trouble
Год выпуска: 2019
Страна: Канада, США, Каймановы острова
Студия: 3QU Media, Cinesite Animation, Storyoscopic Films, Vanguard Animation, WV Enterprises
Жанр: Мультфильм, комедия, семейный
Продолжительность: 01:27:27
Перевод: Дублированный | iTunes
Субтитры: отсутствуют

Режиссер: Кевин Джонсон

rating

В ролях: Биг Шон, Памела Адлон, Люси Хейл, Марисса Джэрет Винокур, Джоэл МакХэйл, Уилмер Вальдеррама, Сет Роллинз, Ди Брэдли Бейкер, Кевин Чэмберлин, Лудо Лефевр

Описание: Наследник миллионного состояния и кучки неблагодарных родственников, его псиятельство Принц вышел из зоны комфорта и оказался на улице. Теперь он мечтает вернуться домой. Для этого ему нужно найти новых друзей, избавиться от назойливых белок и сбросить с хвоста матерого охотника. Королевские каникулы начинаются.

Качество: WEB-DL 1080p
Формат: MKV

Видео: MPEG-4 AVC, 1920x1080, 5007 Kbps, 24.000 fps
Аудио: Russian: AC3, 6 ch, 48 kHz, 384 kbps - DUB, iTunes
скриншот  скриншот  скриншот  скриншот  

Video
ID : 1
Format : AVC
Format/Info : Advanced Video Codec
Format profile : High@L4
Format settings : CABAC / 4 Ref Frames
Format settings, CABAC : Yes
Format settings, Reference : 4 frames
Codec ID : V_MPEG4/ISO/AVC
Duration : 1 h 27 min
Bit rate : 5 007 kb/s
Width : 1 920 pixels
Height : 1 080 pixels
Display aspect ratio : 16:9
Frame rate mode : Constant
Frame rate : 24.000 FPS
Color space : YUV
Chroma subsampling : 4:2:0
Bit depth : 8 bits
Scan type : Progressive
Bits/(Pixel*Frame) : 0.101
Stream size : 3.06 GiB (91%)
Language : English
Default : Yes
Forced : No
Color range : Limited
Color primaries : BT.709
Transfer characteristics : BT.709
Matrix coefficients : BT.709

Audio
ID : 2
Format : AC-3
Format/Info : Audio Coding 3
Commercial name : Dolby Digital
Codec ID : A_AC3
Duration : 1 h 27 min
Bit rate mode : Constant
Bit rate : 384 kb/s
Channel(s) : 6 channels
Channel layout : L R C LFE Ls Rs
Sampling rate : 48.0 kHz
Frame rate : 31.250 FPS (1536 SPF)
Compression mode : Lossy
Stream size : 240 MiB (7%)
Title : [DUB] DD 5.1 @ 384 kbps (iTunes)
Language : Russian
Service kind : Complete Main
Default : Yes
Forced : No

Menu
00:00:00.000 : en:Глава 1
00:08:05.541 : en:Глава 2
00:16:41.166 : en:Глава 3
00:20:16.499 : en:Глава 4
00:33:09.915 : en:Глава 5
00:41:16.498 : en:Глава 6
00:49:32.081 : en:Глава 7
00:57:37.622 : en:Глава 8
01:05:45.497 : en:Глава 9
01:14:08.413 : en:Глава 10

freegat.top



Скачать Королевские каникулы через торрент https://a.radikal.ru/a09/1912/89/6581eb858398.png Скачать фильм Королевские каникулы через торрент бесплантно в хорошем качестве Описание: Наследник миллионного состояния и кучки неблагодарных родственников, его псиятельство Принц вышел из зоны комфорта и оказался на ... 10 10 12
Торрент: Зарегистрирован [2019-12-15 20:35] · скачан: 303 раз
Статус: √ проверено
Размер: 3.36 GB
Как cкачать? Как скачать Королевские каникулы через торрент | qTorrent

% Раздел Тема Автор DL S | L
Зарубежные Мультфильмы (WEB-DL 720p, 1080p) [ 2.68 GB ] Королевские каникулы / Trouble [2019 Мультфильм WEB-DL 720p] bober100 Скачать
20 | 0
Иностранные мультфильмы [ 747 MB ] Королевские каникулы / Trouble [2019 Мультфильм WEB-DLRip] bober100 Скачать
4 | 0
Иностранные мультфильмы [ 1.46 GB ] Королевские каникулы / Trouble [2019 Мультфильм WEB-DLRip] bober100 Скачать
18 | 0

28-11-2019 20:33  

Отключить всю рекламу на сайте

    Дорогой пользователь! Огромная просьба, поблагодарите релизера, оцените раздачу и оставьте свои комментарий, если Вы скачали Королевские каникулы через торрент бесплатно! Внесите свою лепту в развитие PiratBit!
    Комментировать посты могут только пользователи прошедшие не сложную регистрацию
    Показать сообщения:    

    Королевские каникулы через торрент
    Скачать бесплатно Королевские каникулы
    Королевские каникулы скачать торрент
    Королевские каникулы смотреть онлайн
    Cкачать фильм Королевские каникулы бесплатно
    Королевские каникулы скачать торрент в хорошем качестве
    Королевские каникулы смотреть онлайн бесплатно в хорошем качестве


    Вы не можете начинать темы
    Вы не можете отвечать на сообщения
    Вы не можете редактировать свои сообщения
    Вы не можете удалять свои сообщения
    Вы не можете голосовать в опросах
    Вы не можете прикреплять файлы к сообщениям
    Вы можете скачивать файлы