Ссылка на приватное зеркало всего за 1$. Внимание количество ограничено!!!

OK

1+1

iTunes

мы

OK

1

WEB-DLRip

Джокер

Пифагор

Ведьмак / The Witcher сериал

Лицензия

ПШазам

ОК

Оно 2

iTunes

30
pack

Вам бонус

ВАЖНО

!!Акция!!

Alien_RageХит недели

RePack

Resident Evil 21

ИГРА 18+

pack

RePack

jed

!!Акция!!

Alien_Rage

RePack

fifa19

RePack

Assassins Creed: Odyssey

RePack

NEED FOR SPEED™ PAYBACK

4 сезон

9 сезон

Бесстыжие 9 сезон

Все сериалы

все сериалы на PB.wtf

RePack

FAR CRY 5
  

Гранд Тур / The Grand Tour / Сезон: 4 / Серии: 1- из 14 (Фил Чурчуорд, Кит Линч Робинсон, Гэвин Уайтхед) [2019, Авто-шоу, WEB-DL 720p] MVO [NewStudio] freegat.top

Гранд Тур через торрент freegat.top

Раздают: 2 [ 0 KB/s ]
Размер: 4.38 GB | Добавлен: 1 мес. назад | Торрент скачан:22 раза
Скачать  

19-12-2019 18:30 Гранд Тур Скачать торрент  

Гранд Тур | The Grand Tour Год выхода: 2019
Страна: Великобритания
Жанр: Автопередача
Продолжительность: ~01:10:00 серия
Перевод: Профессиональное многоголосое закадровое | NewStudio
Субтитры: Русские (Amazon|, английские

Режиссер: Фил Чурчуорд, Кит Линч Робинсон, Гэвин Уайтхед

В ролях: Джереми Кларксон, Ричард Хаммонд, Джеймс Мэй

Описание: "Гранд Тур" — это новое автомобильное телешоу, созданное бывшими ведущими Top Gear — Джереми Кларксоном, Ричардом Хаммондом и Джеймсом Мэйем. Зрителей ждут автомобильные обзоры, приключения по всему миру, встречи со знаменитостями и юмор, который является непременным атрибутом каждого выпуска.

rating


Качество видео: WEB-DL 720p
Формат: MKV

Видео: AVC, 1280x720, ~5500 Kbps, 25.000 fps
Аудио №1: AC3, 48,0 kHz, 6 ch, 640 kbps | NewStudio
Аудио №2: AC3, 48,0 kHz, 6 ch, 640 kbps | Original
скриншот  скриншот  скриншот  скриншот  скриншот  
General
Unique ID : 209655510417165551253849389454186130355 (0x9DBA2EBBB754ACE9BB44F35419EE2BB3)
Complete name : F:\The.Grand.Tour_s04_NewStudio\The.Grand.Tour.s04e01.WEB-DL.720p_EniaHD.mkv
Format : Matroska
Format version : Version 4 / Version 2
File size : 4.21 GiB
Duration : 1 h 31 min
Overall bit rate : 6 586 kb/s
Movie name : The Grand Tour 4x01 @ EniaHD
Encoded date : UTC 2019-12-14 07:35:35
Writing application : mkvmerge v18.0.0 ('Apricity') 64-bit
Writing library : libebml v1.3.5 + libmatroska v1.4.8

Video
ID : 1
Format : AVC
Format/Info : Advanced Video Codec
Format profile : High@L3.1
Format settings : CABAC / 4 Ref Frames
Format settings, CABAC : Yes
Format settings, ReFrames : 4 frames
Codec ID : V_MPEG4/ISO/AVC
Duration : 1 h 31 min
Bit rate mode : Constant
Bit rate : 5 559 kb/s
Nominal bit rate : 6 000 kb/s
Width : 1 280 pixels
Height : 720 pixels
Display aspect ratio : 16:9
Frame rate mode : Constant
Frame rate : 25.000 FPS
Color space : YUV
Chroma subsampling : 4:2:0
Bit depth : 8 bits
Scan type : Progressive
Bits/(Pixel*Frame) : 0.241
Stream size : 3.56 GiB (84%)
Default : Yes
Forced : No
Color range : Limited
Color primaries : BT.709
Transfer characteristics : BT.709
Matrix coefficients : BT.709

Audio #1
ID : 2
Format : AC-3
Format/Info : Audio Coding 3
Codec ID : A_AC3
Duration : 1 h 31 min
Bit rate mode : Constant
Bit rate : 640 kb/s
Channel(s) : 6 channels
Channel positions : Front: L C R, Side: L R, LFE
Sampling rate : 48.0 kHz
Frame rate : 31.250 FPS (1536 SPF)
Bit depth : 16 bits
Compression mode : Lossy
Stream size : 252 MiB (6%)
Title : DD5.1 NewStudio
Language : Russian
Service kind : Complete Main
Default : Yes
Forced : No

Audio #2
ID : 3
Format : AC-3
Format/Info : Audio Coding 3
Codec ID : A_AC3
Duration : 1 h 31 min
Bit rate mode : Constant
Bit rate : 640 kb/s
Channel(s) : 6 channels
Channel positions : Front: L C R, Side: L R, LFE
Sampling rate : 48.0 kHz
Frame rate : 31.250 FPS (1536 SPF)
Bit depth : 16 bits
Compression mode : Lossy
Stream size : 419 MiB (10%)
Title : DD5.1 Original
Language : English
Service kind : Complete Main
Default : No
Forced : No

Text #1
ID : 4
Format : UTF-8
Codec ID : S_TEXT/UTF8
Codec ID/Info : UTF-8 Plain Text
Duration : 1 h 30 min
Bit rate : 142 b/s
Count of elements : 1487
Stream size : 94.5 KiB (0%)
Title : Full |Amazon|
Language : Russian
Default : No
Forced : No

Text #2
ID : 5
Format : UTF-8
Codec ID : S_TEXT/UTF8
Codec ID/Info : UTF-8 Plain Text
Duration : 18 min 52 s
Bit rate : 0 b/s
Count of elements : 4
Stream size : 107 Bytes (0%)
Title : Forced
Language : English
Default : No
Forced : No

Text #3
ID : 6
Format : UTF-8
Codec ID : S_TEXT/UTF8
Codec ID/Info : UTF-8 Plain Text
Duration : 1 h 30 min
Bit rate : 87 b/s
Count of elements : 1664
Stream size : 58.4 KiB (0%)
Language : English
Default : No
Forced : No

Text #4
ID : 7
Format : UTF-8
Codec ID : S_TEXT/UTF8
Codec ID/Info : UTF-8 Plain Text
Duration : 1 h 30 min
Bit rate : 87 b/s
Count of elements : 1665
Stream size : 58.4 KiB (0%)
Title : SDH
Language : English
Default : No
Forced : No

Menu
00:00:00.000 : en:Amazon Original
00:00:05.000 : en:Welcome to Cambodia
00:00:38.000 : en:Title Sequence
00:00:49.000 : en:The challenge
00:05:01.000 : en:Everyone picks their boats
00:11:24.000 : en:A rough start to the journey
00:18:18.000 : en:Making camp for the night
00:21:44.000 : en:Shopping for provisions
00:24:49.000 : en:Making their way across the lake
00:30:45.000 : en:Testing out what the boats can do
00:36:40.000 : en:Arriving in Phnom Penh
00:43:53.000 : en:Journey to the Mekong River
00:49:03.000 : en:Entering Vietnam
00:52:35.000 : en:The story of heroism in Chau Doc
00:54:28.000 : en:Navigating in the dark
00:59:53.000 : en:Getting lost
01:07:08.000 : en:A busy river route
01:14:26.000 : en:The Forest of the Assassins
01:19:57.000 : en:An epic adventure
01:21:37.000 : en:What could possibly go wrong?
01:29:01.000 : en:A treacherous journey to the finish line
01:30:54.000 : en:End Credits
Внимание! Раздача ведётся путём добавления новых серий; при каждом добавлении создаётся новый торрент. Чтобы начать докачку новой серии, пользователям необходимо сделать следующее:
(1) остановить скачивание,
(2) удалить старый торрент у себя из клиента (старые серии удалять не надо),
(3) скачать новый торрент и запустить его у себя в клиенте вместо старого, при этом указать клиенту путь в старую папку куда и должно происходить скачивание новых серий.
Ваш клиент при этом должен произвести хеширование (проверку) старой папки (если не производит сам - помогите ему сделать это), и будет докачивать только те серии которых у вас ещё нет. Старые серии при этом не удаляются, а продолжают раздаваться!
Eсли вы уже удалили старые серии, то предотвратить повторную закачку старых серий можно, отжав галочку в соответствующих местах при запуске нового торрента. По возможности, желательно не удалять старые серии как можно дольше чтобы релизёр не столько продолжал раздавать старые серии, а смог сконцентрироваться на новых.
freegat.top



Скачать Гранд Тур через торрент https://a.radikal.ru/a06/1901/a1/ce805cf295ed.png Скачать фильм Гранд Тур через торрент бесплантно в хорошем качестве Описание: "Гранд Тур" — это новое автомобильное телешоу, созданное бывшими ведущими Top Gear — Джереми Кларксоном, Ричардом Хаммондом и ... 10 10 2
Торрент: Зарегистрирован [2019-12-19 18:30] · скачан: 22 раз
Статус: √ проверено
Размер: 4.38 GB
Как cкачать? Как скачать Гранд Тур через торрент | qTorrent

% Раздел Тема Автор DL S | L
Автоспорт [ 6.29 GB ] Гранд Тур / The Grand Tour / Сезон 4 / Серии 1- из 14 [2019-2020. Авто-шоу WEB-DL 1080p] [MVO] killermax2013 Скачать
2 | 0
Автоспорт [ 4.21 GB ] Гранд Тур / The Grand Tour / Сезон: 4 / Серии: 1- из 14 [2019 Авто-шоу WEB-DL 720p] MVO [AlexFilm] bober100 Скачать
12 | 0
Автоспорт [ 29.1 GB ] Гранд Тур / The Grand Tour / Сезон: 4 / Серии: 1- из 14 [2019 Авто-шоу WEBRip 2160p] MVO [AlexFilm] bober100 Скачать
2 | 0
Автоспорт [ 7.11 GB ] Гранд Тур / The Grand Tour / Сезон: 4 / Серии: 1- из 14 [2019 Авто-шоу WEB-DL 1080p] 2xMVO [AlexFilm NewStudio] bober100 Скачать
5 | 0
Автоспорт [ 1.78 GB ] Гранд Тур / The Grand Tour / Сезон: 4 / Серии: 1- из 14 [2019 Авто-шоу WEB-DLRip] MVO [AlexFilm] bober100 Скачать
5 | 0

28-11-2019 20:33  

Отключить всю рекламу на сайте

    Дорогой пользователь! Огромная просьба, поблагодарите релизера, оцените раздачу и оставьте свои комментарий, если Вы скачали Гранд Тур через торрент бесплатно! Внесите свою лепту в развитие PiratBit!
    Комментировать посты могут только пользователи прошедшие не сложную регистрацию
    Показать сообщения:    

    Гранд Тур через торрент
    Скачать бесплатно Гранд Тур
    Гранд Тур скачать торрент
    Гранд Тур смотреть онлайн
    Cкачать фильм Гранд Тур бесплатно
    Гранд Тур скачать торрент в хорошем качестве
    Гранд Тур смотреть онлайн бесплатно в хорошем качестве


    Вы не можете начинать темы
    Вы не можете отвечать на сообщения
    Вы не можете редактировать свои сообщения
    Вы не можете удалять свои сообщения
    Вы не можете голосовать в опросах
    Вы не можете прикреплять файлы к сообщениям
    Вы можете скачивать файлы