Ссылка на приватное зеркало всего за 1$. Внимание количество ограничено!!!

iTunes

1+1

iTunes

мы

MV0

1

WEB-DLRip

Джокер

Пифагор

Ведьмак / The Witcher сериал

iTunes

ПШазам

iTunes

Оно 2

iTunes

30
pack

Вам бонус

ВАЖНО

!!Акция!!

Alien_RageХит недели

RePack

Resident Evil 21

ИГРА 18+

pack

RePack

jed

!!Акция!!

Alien_Rage

RePack

fifa19

RePack

Assassins Creed: Odyssey

RePack

NEED FOR SPEED™ PAYBACK

4 сезон

9 сезон

Бесстыжие 9 сезон

Все сериалы

все сериалы на PB.wtf

RePack

FAR CRY 5
  

Достать ножи / Knives Out (Райан Джонсон) [2019, детектив, комедия, драма, криминал, WEBRip 1080p] [MVO] (HDRezka Studio) freegat.top

Достать ножи через торрент freegat.top

Раздают: 13 [ 0 KB/s ]
Размер: 14.83 GB | Добавлен: 14 д. назад | Торрент скачан:234 раза
Скачать  

26-12-2019 10:13 Достать ножи Скачать торрент  

Достать ножи / Knives Out
Год выпуска: 2019
Страна: США
Жанр: детектив, комедия, драма, криминал
Продолжительность: 02:10:30
Перевод: Профессиональный (многоголосый) *HDRezka Studio *
Субтитры: русские (forced)

Режиссер: Райан Джонсон

В ролях: Дэниэл Крэйг, Ана де Армас, Крис Эванс, Джейми Ли Кёртис, Майкл Шеннон, Дон Джонсон, Тони Коллетт, Лакит Стэнфилд, Кристофер Пламмер, Кэтрин Лэнгфорд

Описание: Когда сразу после празднования 85-летия известного автора криминальных романов Харлана Тромби виновника торжества находят мёртвым, за расследование берётся обаятельный и дотошный частный детектив Бенуа Блан. Ему предстоит распутать тугую сеть уловок и корыстной лжи, которой его опутывают члены неблагополучной семьи Харлана и преданный ему персонал.

rating

Качество: WEBRip 1080p [AMZN]
Формат: MKV
Видео: AVC, 1920x1040, 23.976 fps, ~15.5 Mbps
Аудио: 48 kHz, AC3 Dolby Digital, 6 ch, ~448 kbps
General
Unique ID : 205223253723593087412651234058827927532 (0x9A648F9B46D725D10FA869C98C630FEC)
Complete name : F:\Knives.Out.2019.WEBRip.1080p.rus.5.1.HDREZKA.STUDIO.mkv
Format : Matroska
Format version : Version 4 / Version 2
File size : 14.8 GiB
Duration : 2h 10mn
Overall bit rate mode : Variable
Overall bit rate : 16.3 Mbps
Encoded date : UTC 2020-02-12 08:05:15
Writing application : mkvmerge v28.2.0 ('The Awakening') 64-bit
Writing library : libebml v1.3.6 + libmatroska v1.4.9

Video
ID : 1
Format : AVC
Format/Info : Advanced Video Codec
Format profile : High@L4.1
Format settings, CABAC : Yes
Format settings, ReFrames : 1 frame
Codec ID : V_MPEG4/ISO/AVC
Duration : 2h 10mn
Bit rate mode : Variable
Bit rate : 15.5 Mbps
Maximum bit rate : 2 000 Kbps
Width : 1 920 pixels
Height : 1 040 pixels
Display aspect ratio : 1.85:1
Frame rate mode : Constant
Frame rate : 23.976 fps
Color space : YUV
Chroma subsampling : 4:2:0
Bit depth : 8 bits
Scan type : Progressive
Bits/(Pixel*Frame) : 0.324
Stream size : 14.1 GiB (95%)
Default : Yes
Forced : No

Audio
ID : 2
Format : AC-3
Format/Info : Audio Coding 3
Mode extension : CM (complete main)
Format settings, Endianness : Big
Codec ID : A_AC3
Duration : 2h 10mn
Bit rate mode : Constant
Bit rate : 448 Kbps
Channel(s) : 6 channels
Channel positions : Front: L C R, Side: L R, LFE
Sampling rate : 48.0 KHz
Compression mode : Lossy
Stream size : 417 MiB (3%)
Language : Russian
Default : Yes
Forced : No
скриншот  скриншот  скриншот  
freegat.top



Скачать Достать ножи через торрент https://i111.fastpic.ru/big/2020/0212/64/0b993323000b1aef9cecfe709cd66464.png Скачать фильм Достать ножи через торрент бесплантно в хорошем качестве Описание: Когда сразу после празднования 85-летия известного автора криминальных романов Харлана Тромби виновника торжества находят ... 9.6 10 27
Info! Золотая раздача, скачанное не засчитывается.
Торрент: Зарегистрирован [2020-02-12 16:22] · скачан: 234 раз
Статус: ∑ поглощено
Размер: 14.83 GB
Как cкачать? Как скачать Достать ножи через торрент | qTorrent

% Раздел Тема Автор DL S | L
Фильмы 2019-2020 [DVDrip, WEB-DLRip, HDrip] (DUB, MVO) [ 2.12 GB ] Достать ножи / Knives Out [2019 BDRip] - Twi7ter Скачать
378 | 28
Фильмы 2019-2020 [DVDrip, WEB-DLRip, HDrip] (DUB, MVO) [ 1.46 GB ] Достать ножи / Knives Out [2019 BDRip] - Twi7ter Скачать
191 | 10
Ultra HD (UHD: 2K, 4K, 8K) — видео сверхвысокой чёткости [ 68.35 GB ] Достать ножи / Knives Out [2019 UHD BDRemux 2160p ] +MVO [HDrezka Studio] +AVO [М. Яроцкий ] bober100 Скачать
6 | 1
Ultra HD (UHD: 2K, 4K, 8K) — видео сверхвысокой чёткости [ 31.31 GB ] Достать ножи / Knives Out [2019 UHD BDRip 2160p] MVO [HDRezka Studio] sheker187 Скачать
5 | 0
Ultra HD (UHD: 2K, 4K, 8K) — видео сверхвысокой чёткости [ 59.2 GB ] Достать ножи / Knives Out [2019 UHD BDRemux 2160p] +MVO [HDrezka Studio] +AVO [М. Яроцкий ] bober100 Скачать
5 | 0
T Фильмы с украинским озвучиванием [ 2 GB ] Достать ножи / Ножі наголо / Knives Out [2019 WEB-DLRip] [Ukr DUB] killermax2013 Скачать
10 | 1
Фильмы [HD 720p, 1080p] (Хороший звук DUB, MVO) [ 12.39 GB ] Достать ножи / Knives Out [2019 BDRip 1080p] +MVO [HDrezka Studio] +AVO [М. Яроцкий ] bober100 Скачать
62 | 2

28-11-2019 20:33  

Отключить всю рекламу на сайте

19-02-2020 21:31 Достать ножи Скачать торрент  

Топик был перенесен из форума Фильмы (WEB-DL 720p, 1080p) в форум Для поглощённых раздач

Причина переноса: Достать ножи / Knives Out
bober100freegat.top



    Дорогой пользователь! Огромная просьба, поблагодарите релизера, оцените раздачу и оставьте свои комментарий, если Вы скачали Достать ножи через торрент бесплатно! Внесите свою лепту в развитие PiratBit!
    Комментировать посты могут только пользователи прошедшие не сложную регистрацию
    Показать сообщения:    

    Достать ножи через торрент
    Скачать бесплатно Достать ножи
    Достать ножи скачать торрент
    Достать ножи смотреть онлайн
    Cкачать фильм Достать ножи бесплатно
    Достать ножи скачать торрент в хорошем качестве
    Достать ножи смотреть онлайн бесплатно в хорошем качестве


    Вы не можете начинать темы
    Вы не можете отвечать на сообщения
    Вы не можете редактировать свои сообщения
    Вы не можете удалять свои сообщения
    Вы не можете голосовать в опросах
    Вы не можете прикреплять файлы к сообщениям
    Вы можете скачивать файлы