Ссылка на приватное зеркало всего за 1$. Внимание количество ограничено!!!

iTunes

1+1

iTunes

мы

MV0

1

WEB-DLRip

Джокер

Пифагор

Ведьмак / The Witcher сериал

iTunes

ПШазам

iTunes

Оно 2

iTunes

30
pack

Вам бонус

ВАЖНО

!!Акция!!

Alien_RageХит недели

RePack

Resident Evil 21

ИГРА 18+

pack

RePack

jed

!!Акция!!

Alien_Rage

RePack

fifa19

RePack

Assassins Creed: Odyssey

RePack

NEED FOR SPEED™ PAYBACK

4 сезон

9 сезон

Бесстыжие 9 сезон

Все сериалы

все сериалы на PB.wtf

RePack

FAR CRY 5
  

Ослепленный светом / Blinded by the Light (Гуриндер Чадха) [2019, драма, комедия, музыка, BDRip 1080p] DUB [iTunes] freegat.top

Ослепленный светом через торрент freegat.top

Раздают: 2 [ 0 KB/s ]
Размер: 11.9 GB | Добавлен: 14 д. назад | Торрент скачан:26 раз
Скачать  

28-12-2019 13:54 Ослепленный светом Скачать торрент  

Ослепленный светом | Blinded by the Light
Год выпуска: 2019
Страна: Великобритания, США
Студия: Bend It Films, Ingenious Media, Levantine Films
Жанр: драма, комедия, музыка
Продолжительность: 01:57:46
Перевод: Дублированный | iTunes
Субтитры: Русские (Forced, full), английские

Режиссер: Гуриндер Чадха

rating

В ролях: Вивеик Калра, Кулвиндер Гир, Мира Ганатра, Аарон Фагура, Дин-Чарльз Чепмен, Никита Мехта, Нелл Уильямс, Тара Дивина, Роб Брайдон, Фрэнки Фокс

Описание: 1987 год. Шестнадцатилетний школьник Джавед из семьи пакистанских эмигрантов живет в небольшом английском городе Лутоне. Его жизнь кроткого и замкнутого подростка переворачивается благодаря влиянию музыки Брюса Спрингстина. Вдохновившись ей, Джавед учится жить полноценной жизнью, понимать свою семью и обрести свой собственный голос. Он решается сделать то, на что раньше считал себя неспособным...

Качество: BDRip 1080p
Формат: MKV

Видео: MPEG-4 AVC, 1920x804, 13.4 Mbit/s, 23.976 fps
Аудио #01: 48 kHz, AC3, 5.1, 384 Kbps | iTunes | RUS |
Аудио #02: 48 kHz, AC3, 5.1, 640 Kbps | Оригинал | ENG |
скриншот  скриншот  скриншот  скриншот  скриншот  

General
Unique ID : 2638389784916471339005812310140984591 (0x1FC22A8DD68DB922D58F000FF131D0F)
Complete name : E:Video111Blinded.by.the.Light.2019.BDRip.1080p.seleZen.mkv
Format : Matroska
Format version : Version 4
File size : 11.9 GiB
Duration : 1 h 57 min
Overall bit rate : 14.5 Mb/s
Movie name : Blinded.by.the.Light.2019 from селезень
Encoded date : UTC 2020-02-14 08:36:07
Writing application : mkvmerge v40.0.0 ('Old Town Road + Pony') 64-bit
Writing library : libebml v1.3.9 + libmatroska v1.5.2

Video
ID : 1
Format : AVC
Format/Info : Advanced Video Codec
Format profile : High@L4.1
Format settings : CABAC / 5 Ref Frames
Format settings, CABAC : Yes
Format settings, Reference : 5 frames
Codec ID : V_MPEG4/ISO/AVC
Duration : 1 h 57 min
Bit rate : 13.4 Mb/s
Width : 1 920 pixels
Height : 804 pixels
Display aspect ratio : 2.40:1
Frame rate mode : Constant
Frame rate : 23.976 (24000/1001) FPS
Color space : YUV
Chroma subsampling : 4:2:0
Bit depth : 8 bits
Scan type : Progressive
Bits/(Pixel*Frame) : 0.363
Stream size : 11.1 GiB (93%)
Title : PTer
Writing library : x264 core 158 r2984+47 456d10a t_mod_New [0-bit@all X86_64]
Encoding settings : cabac=1 / ref=5 / deblock=1:-3:-3 / analyse=0x3:0x133 / me=umh / subme=11 / psy=1 / fade_compensate=0.00 / psy_rd=1.08:0.00 / mixed_ref=1 / me_range=32 / chroma_me=1 / trellis=2 / 8x8dct=1 / cqm=0 / deadzone=21,11 / fast_pskip=0 / chroma_qp_offset=-2 / threads=12 / lookahead_threads=3 / sliced_threads=0 / nr=0 / decimate=0 / interlaced=0 / bluray_compat=0 / constrained_intra=0 / fgo=0 / bframes=10 / b_pyramid=2 / b_adapt=2 / b_bias=0 / direct=3 / weightb=1 / open_gop=0 / weightp=2 / keyint=250 / keyint_min=23 / scenecut=40 / intra_refresh=0 / rc_lookahead=250 / rc=crf / mbtree=0 / crf=15.7000 / qcomp=0.65 / qpmin=0:0:0 / qpmax=69:69:69 / qpstep=4 / vbv_maxrate=62500 / vbv_bufsize=78125 / crf_max=0.0 / nal_hrd=none / filler=0 / ip_ratio=1.30 / pb_ratio=1.20 / aq=3:0.87 / aq-sensitivity=10.00 / aq-factor=1.00:1.00:1.00 / aq2=0 / aq3=0
Language : English
Default : Yes
Forced : No
Color range : Limited
Color primaries : BT.709
Matrix coefficients : BT.709

Audio #1
ID : 2
Format : AC-3
Format/Info : Audio Coding 3
Commercial name : Dolby Digital
Codec ID : A_AC3
Duration : 1 h 57 min
Bit rate mode : Constant
Bit rate : 384 kb/s
Channel(s) : 6 channels
Channel layout : L R C LFE Ls Rs
Sampling rate : 48.0 kHz
Frame rate : 31.250 FPS (1536 SPF)
Compression mode : Lossy
Stream size : 323 MiB (3%)
Title : iTunes
Language : Russian
Service kind : Complete Main
Default : Yes
Forced : Yes

Audio #2
ID : 3
Format : AC-3
Format/Info : Audio Coding 3
Commercial name : Dolby Digital
Codec ID : A_AC3
Duration : 1 h 57 min
Bit rate mode : Constant
Bit rate : 640 kb/s
Channel(s) : 6 channels
Channel layout : L R C LFE Ls Rs
Sampling rate : 48.0 kHz
Frame rate : 31.250 FPS (1536 SPF)
Compression mode : Lossy
Stream size : 539 MiB (4%)
Title : Original
Language : English
Service kind : Complete Main
Default : No
Forced : No

Text #1
ID : 4
Format : UTF-8
Codec ID : S_TEXT/UTF8
Codec ID/Info : UTF-8 Plain Text
Duration : 1 h 51 min
Bit rate : 1 b/s
Count of elements : 22
Stream size : 1.19 KiB (0%)
Title : Forced
Language : Russian
Default : Yes
Forced : Yes

Text #2
ID : 5
Format : UTF-8
Codec ID : S_TEXT/UTF8
Codec ID/Info : UTF-8 Plain Text
Duration : 1 h 51 min
Bit rate : 95 b/s
Count of elements : 1463
Stream size : 77.7 KiB (0%)
Title : Full
Language : Russian
Default : No
Forced : No

Text #3
ID : 6
Format : UTF-8
Codec ID : S_TEXT/UTF8
Codec ID/Info : UTF-8 Plain Text
Duration : 1 h 50 min
Bit rate : 61 b/s
Count of elements : 1636
Stream size : 49.5 KiB (0%)
Title : SDH
Language : English
Default : No
Forced : No

Menu
00:00:00.000 : en:Chapter 01
00:11:10.211 : en:Chapter 02
00:20:03.661 : en:Chapter 03
00:30:13.270 : en:Chapter 04
00:39:49.596 : en:Chapter 05
00:48:52.054 : en:Chapter 06
00:58:27.212 : en:Chapter 07
01:08:39.490 : en:Chapter 08
01:19:01.820 : en:Chapter 09
01:28:16.791 : en:Chapter 10
01:40:07.043 : en:Chapter 11
01:51:37.399 : en:Chapter 12

freegat.top



Скачать Ослепленный светом через торрент https://img15.lostpic.net/2020/02/14/5e0104ee6b0f11ed9bb20c08146b57c3.jpg Скачать фильм Ослепленный светом через торрент бесплантно в хорошем качестве Описание: 1987 год. Шестнадцатилетний школьник Джавед из семьи пакистанских эмигрантов живет в небольшом английском городе Лутоне. Его ... 10 10 6
Торрент: Зарегистрирован [2020-02-14 08:44] · скачан: 26 раз
Статус: √ проверено
Размер: 11.9 GB
Как cкачать? Как скачать Ослепленный светом через торрент | qTorrent

% Раздел Тема Автор DL S | L
Фильмы [HD 720p, 1080p] (Хороший звук DUB, MVO) [ 6.57 GB ] Ослепленный светом / Blinded by the Light [2019 музыка BDRip 720p] bober100 Скачать
4 | 0
Фильмы 2019-2020 [DVDrip, WEB-DLRip, HDrip] (DUB, MVO) [ 1.46 GB ] Ослепленный светом / Blinded by the Light [2019 музыка BDRip] bober100 Скачать
10 | 0
Фильмы (Blu-ray, BD-Remux, HDDVD) [ 21.55 GB ] Ослепленный светом / Blinded by the Light [2019 музыка BD Remux 1080p] bober100 Скачать
2 | 0

28-11-2019 20:33  

Отключить всю рекламу на сайте

    Дорогой пользователь! Огромная просьба, поблагодарите релизера, оцените раздачу и оставьте свои комментарий, если Вы скачали Ослепленный светом через торрент бесплатно! Внесите свою лепту в развитие PiratBit!
    Комментировать посты могут только пользователи прошедшие не сложную регистрацию
    Показать сообщения:    

    Ослепленный светом через торрент
    Скачать бесплатно Ослепленный светом
    Ослепленный светом скачать торрент
    Ослепленный светом смотреть онлайн
    Cкачать фильм Ослепленный светом бесплатно
    Ослепленный светом скачать торрент в хорошем качестве
    Ослепленный светом смотреть онлайн бесплатно в хорошем качестве


    Вы не можете начинать темы
    Вы не можете отвечать на сообщения
    Вы не можете редактировать свои сообщения
    Вы не можете удалять свои сообщения
    Вы не можете голосовать в опросах
    Вы не можете прикреплять файлы к сообщениям
    Вы можете скачивать файлы