Ссылка на приватное зеркало всего за 1$. Внимание количество ограничено!!!

OK

1+1

iTunes

мы

OK

1

WEB-DLRip

Джокер

Пифагор

Ведьмак / The Witcher сериал

Лицензия

ПШазам

ОК

Оно 2

iTunes

30
pack

Вам бонус

ВАЖНО

!!Акция!!

Alien_RageХит недели

RePack

Resident Evil 21

ИГРА 18+

pack

RePack

jed

!!Акция!!

Alien_Rage

RePack

fifa19

RePack

Assassins Creed: Odyssey

RePack

NEED FOR SPEED™ PAYBACK

4 сезон

9 сезон

Бесстыжие 9 сезон

Все сериалы

все сериалы на PB.wtf

RePack

FAR CRY 5
  

Невиновен (Андзор Емкуж) [2019, Драма, боевик, WEB-DL 1080p] [iTunes] freegat.top

Невиновен через торрент freegat.top

Раздают: 12 [ 217 KB/s ]
Размер: 2.99 GB | Добавлен: 9 д. назад | Торрент скачан:106 раз
Скачать  

03-01-2020 16:47 Невиновен Скачать торрент  

Невиновен
Год выпуска: 2019
Страна: Россия
Жанр: Драма, боевик
Продолжительность: 01:17:56
Перевод: Не требуется | iTunes
Субтитры: отсутствуют

Режиссер: Андзор Емкуж



В ролях: Ахмед Хамурзов, Тимур Кетенчиев, Жанетта Тхашугоева, Татьяна Дрожжина, Кантемир Шипшев, Артур Проскурин, Каншоуби Хашев, Замир Дышеков, Аскер Налоев, Валентин Камергоев

Описание: Айтеч, бывший сотрудник спецслужб, вернувшись на родину на Кавказ, работает егерем в горах. Он уговаривает брата отправить племянника Азамата на учебу в Москву, где он сам учился в свое время, для получения достойного образования, но юношу убивают. Съедаемый чувством собственной вины за случившееся и движимый желанием всего рода - найти и наказать виновного, он отправляется в столицу... За что убили юношу? Как его убийца превратился из славного мальчика в жестокого зверя? Как должен поступить дядя: в соответствии с древними традициями кровной мести, по закону или по совести?..

Качество: WEB-DL 1080p
Формат: MKV

Видео: MPEG-4 AVC, ~ 4993 Кбит/с, 1920x800
Аудио: Русский (AC3, 6 ch, 384 Кбит/с)
скриншот  скриншот  скриншот  скриншот  

Общее
Уникальный идентификатор : 230993096269590928165991778007407729849 (0xADC7A6F05E58B744A72E7D9491091CB9)
Полное имя : D:\Nevinoven.2019.WEB-DL.(1080p).ExKinoRay.mkv
Формат : Matroska
Версия формата : Version 2
Размер файла : 2,99 Гбайт
Продолжительность : 1 ч. 17 м.
Общий поток : 5486 Кбит/сек
Дата кодирования : UTC 2020-01-12 02:26:38
Программа кодирования : mkvmerge v5.8.0 ('No Sleep / Pillow') built on Sep 2 2012 15:37:04
Библиотека кодирования : libebml v1.2.3 + libmatroska v1.3.0

Видео
Идентификатор : 1
Формат : AVC
Формат/Информация : Advanced Video Codec
Профиль формата : High@L4
Параметр CABAC формата : Да
Параметр RefFrames формата : 4 кадра
Идентификатор кодека : V_MPEG4/ISO/AVC
Продолжительность : 1 ч. 17 м.
Битрейт : 4993 Кбит/сек
Ширина : 1920 пикселей
Высота : 800 пикселей
Соотношение сторон : 2,40:1
Режим частоты кадров : Постоянный
Частота кадров : 24,000 кадра/сек
Цветовое пространство : YUV
Субдискретизация насыщенности : 4:2:0
Битовая глубина : 8 бит
Тип развёртки : Прогрессивная
Бит/(Пиксели*Кадры) : 0.135
Размер потока : 2,72 Гбайт (91%)
Язык : Russian
Default : Да
Forced : Нет

Аудио
Идентификатор : 2
Формат : AC-3
Формат/Информация : Audio Coding 3
Расширение режима : CM (complete main)
Параметр Endianness формата : Big
Идентификатор кодека : A_AC3
Продолжительность : 1 ч. 17 м.
Вид битрейта : Постоянный
Битрейт : 384 Кбит/сек
Каналы : 6 каналов
Расположение каналов : Front: L C R, Side: L R, LFE
Частота : 48,0 КГц
Частота кадров : 31,250 кадров/сек (1536 spf)
Метод сжатия : С потерями
Размер потока : 214 Мбайт (7%)
Язык : Russian
Default : Да
Forced : Нет

freegat.top



Скачать Невиновен через торрент https://b.radikal.ru/b19/2001/12/478840addccb.jpg Скачать фильм Невиновен через торрент бесплантно в хорошем качестве Описание: Айтеч, бывший сотрудник спецслужб, вернувшись на родину на Кавказ, работает егерем в горах. Он уговаривает брата отправить ... 9.9 10 10
Торрент: Зарегистрирован [2020-01-12 05:25] · скачан: 106 раз
Статус: √ проверено
Размер: 2.99 GB
Как cкачать? Как скачать Невиновен через торрент | qTorrent

% Раздел Тема Автор DL S | L
Наши новые фильмы 2018-2019 [ 1.37 GB ] Невиновен [2019 WEB-DLRip] bober100 Скачать
25 | 1
Наши фильмы (HD, WEB-DL 720p, 1080p) [ 1.61 GB ] Невиновен [2019 WEB-DL 720p] bober100 Скачать
6 | 0
Документальные фильмы и телепередачи [ 59 MB ] Мой сын невиновен! [2012 документальный WEBRip Оригинал] metanoia Скачать
1 | 0

28-11-2019 20:33  

Отключить всю рекламу на сайте

    Дорогой пользователь! Огромная просьба, поблагодарите релизера, оцените раздачу и оставьте свои комментарий, если Вы скачали Невиновен через торрент бесплатно! Внесите свою лепту в развитие PiratBit!
    Комментировать посты могут только пользователи прошедшие не сложную регистрацию
    Показать сообщения:    

    Невиновен через торрент
    Скачать бесплатно Невиновен
    Невиновен скачать торрент
    Невиновен смотреть онлайн
    Cкачать фильм Невиновен бесплатно
    Невиновен скачать торрент в хорошем качестве
    Невиновен смотреть онлайн бесплатно в хорошем качестве


    Вы не можете начинать темы
    Вы не можете отвечать на сообщения
    Вы не можете редактировать свои сообщения
    Вы не можете удалять свои сообщения
    Вы не можете голосовать в опросах
    Вы не можете прикреплять файлы к сообщениям
    Вы можете скачивать файлы