Ссылка на приватное зеркало всего за 1$. Внимание количество ограничено!!!

OK

1+1

iTunes

мы

OK

1

WEB-DLRip

Джокер

Пифагор

Ведьмак / The Witcher сериал

Лицензия

ПШазам

ОК

Оно 2

iTunes

30
pack

Вам бонус

ВАЖНО

!!Акция!!

Alien_RageХит недели

RePack

Resident Evil 21

ИГРА 18+

pack

RePack

jed

!!Акция!!

Alien_Rage

RePack

fifa19

RePack

Assassins Creed: Odyssey

RePack

NEED FOR SPEED™ PAYBACK

4 сезон

9 сезон

Бесстыжие 9 сезон

Все сериалы

все сериалы на PB.wtf

RePack

FAR CRY 5
  

Новогодний ремонт (Артур Пинхасов) [2019, Комедия, мелодрама, WEB-DL 1080p] freegat.top

Новогодний ремонт через торрент freegat.top

Раздают: 7 [ 83 KB/s ]
Размер: 3.07 GB | Добавлен: 9 д. назад | Торрент скачан:151 раз
Скачать  

03-01-2020 17:01 Новогодний ремонт Скачать торрент  

Новогодний ремонт
Год выпуска: 2019
Страна: Россия
Жанр: Комедия, мелодрама
Продолжительность: 01:22:53
Перевод: Не требуется
Субтитры: отсутствуют

Режиссер: Артур Пинхасов



В ролях: Зоя Бербер, Сергей Комаров, Артём Осипов, Эрик Бигуля, Вадим Галыгин, Ирина Розанова, Виталия Корниенко, Данил Стеклов, Макар Запорожский, Исмаил Коне

Описание: У Марго есть 24 часа, чтобы сделать ремонт в квартире к приезду дочери и мамы. В попытке найти решение, она случайно отправляет сообщение с просьбой о помощи всем контактам в телефоне. С этого момента дверной звонок звучит непрерывно, а в квартире Риты один за другим появляются старые и новые друзья - русский депутат, учитель-еврей, армянин - владелец ресторана. Последним как снег на голову падает американец с предложением жениться. Все вместе решают: Маргариту в США отпускать нельзя! Пусть это будет непросто, но русские ведь просто так не сдаются...

Качество: WEB-DL 1080p
Формат: MKV

Видео: MPEG-4 AVC, ~ 5013 Кбит/с, 1920x800
Аудио: 48.0 kHz, AC3 Dolby Digital, 2/0 (L,R) ch, ~ 192 kbps
скриншот  скриншот  скриншот  скриншот  

Общее
Уникальный идентификатор : 251248225468383034700874168490370957629 (0xBD04A5E9402649889A279B3FCC16813D)
Полное имя : D:\Novogodniy.remont.2019.WEB-DL.(1080p).ExKinoRay.mkv
Формат : Matroska
Версия формата : Version 2
Размер файла : 3,07 Гбайт
Продолжительность : 1 ч. 22 м.
Общий поток : 5310 Кбит/сек
Дата кодирования : UTC 2020-01-11 02:25:08
Программа кодирования : mkvmerge v5.8.0 ('No Sleep / Pillow') built on Sep 2 2012 15:37:04
Библиотека кодирования : libebml v1.2.3 + libmatroska v1.3.0

Видео
Идентификатор : 1
Формат : AVC
Формат/Информация : Advanced Video Codec
Профиль формата : High@L4
Параметр CABAC формата : Да
Параметр RefFrames формата : 4 кадра
Идентификатор кодека : V_MPEG4/ISO/AVC
Продолжительность : 1 ч. 22 м.
Битрейт : 5013 Кбит/сек
Ширина : 1920 пикселей
Высота : 800 пикселей
Соотношение сторон : 2,40:1
Режим частоты кадров : Постоянный
Частота кадров : 25,000 кадров/сек
Цветовое пространство : YUV
Субдискретизация насыщенности : 4:2:0
Битовая глубина : 8 бит
Тип развёртки : Прогрессивная
Бит/(Пиксели*Кадры) : 0.131
Размер потока : 2,90 Гбайт (94%)
Язык : Russian
Default : Да
Forced : Нет

Аудио
Идентификатор : 2
Формат : AC-3
Формат/Информация : Audio Coding 3
Расширение режима : CM (complete main)
Параметр Endianness формата : Big
Идентификатор кодека : A_AC3
Продолжительность : 1 ч. 22 м.
Вид битрейта : Постоянный
Битрейт : 192 Кбит/сек
Каналы : 2 канала
Расположение каналов : Front: L R
Частота : 48,0 КГц
Частота кадров : 31,250 кадров/сек (1536 spf)
Метод сжатия : С потерями
Размер потока : 114 Мбайт (4%)
Язык : Russian
Default : Да
Forced : Нет

freegat.top



Скачать Новогодний ремонт через торрент https://b.radikal.ru/b03/2001/d1/f7360028da24.jpg Скачать фильм Новогодний ремонт через торрент бесплантно в хорошем качестве Описание: У Марго есть 24 часа, чтобы сделать ремонт в квартире к приезду дочери и мамы. В попытке найти решение, она случайно отправляет ... 8.8 10 20
Торрент: Зарегистрирован [2020-01-11 05:45] · скачан: 151 раз
Статус: T временная
Размер: 3.07 GB
Как cкачать? Как скачать Новогодний ремонт через торрент | qTorrent

% Раздел Тема Автор DL S | L
T Наши новые фильмы 2018-2019 [ 1.37 GB ] Новогодний ремонт [2019 WEB-DLRip] bober100 Скачать
33 | 0
T Наши фильмы (HD, WEB-DL 720p, 1080p) [ 1.6 GB ] Новогодний ремонт [2019 WEB-DL 720p] bober100 Скачать
8 | 0


Последний раз редактировалось: bober100 (2020-01-11 07:25), всего редактировалось 1 раз

28-11-2019 20:33  

Отключить всю рекламу на сайте

11-01-2020 06:32 Новогодний ремонт Скачать торрент  

кинцо "фоновое", т.е. включил его и делаешь что-то другое :-)freegat.top



11-01-2020 07:42 Новогодний ремонт Скачать торрент  

это хорошо ,что фоновое.сейчас его жене поставлю.freegat.top



11-01-2020 13:40 Новогодний ремонт Скачать торрент  

SASHA66 писал(а):

это хорошо ,что фоновое.сейчас его жене поставлю.

Поставь , поставь жене ... пусть становится толерантной , с нигером её или чуркой застанешь потом в кровати .freegat.top
!sdolotov писал(а):

Пред хочешь за подстрекательство к конфликту? Выдам не задумываясь, только "желание"!



    Дорогой пользователь! Огромная просьба, поблагодарите релизера, оцените раздачу и оставьте свои комментарий, если Вы скачали Новогодний ремонт через торрент бесплатно! Внесите свою лепту в развитие PiratBit!
    Комментировать посты могут только пользователи прошедшие не сложную регистрацию
    Показать сообщения:    

    Новогодний ремонт через торрент
    Скачать бесплатно Новогодний ремонт
    Новогодний ремонт скачать торрент
    Новогодний ремонт смотреть онлайн
    Cкачать фильм Новогодний ремонт бесплатно
    Новогодний ремонт скачать торрент в хорошем качестве
    Новогодний ремонт смотреть онлайн бесплатно в хорошем качестве


    Вы не можете начинать темы
    Вы не можете отвечать на сообщения
    Вы не можете редактировать свои сообщения
    Вы не можете удалять свои сообщения
    Вы не можете голосовать в опросах
    Вы не можете прикреплять файлы к сообщениям
    Вы можете скачивать файлы