Ссылка на приватное зеркало всего за 1$. Внимание количество ограничено!!!

OK

1+1

iTunes

мы

OK

1

WEB-DLRip

Джокер

Пифагор

Ведьмак / The Witcher сериал

Лицензия

ПШазам

ОК

Оно 2

iTunes

30
pack

Вам бонус

ВАЖНО

!!Акция!!

Alien_RageХит недели

RePack

Resident Evil 21

ИГРА 18+

pack

RePack

jed

!!Акция!!

Alien_Rage

RePack

fifa19

RePack

Assassins Creed: Odyssey

RePack

NEED FOR SPEED™ PAYBACK

4 сезон

9 сезон

Бесстыжие 9 сезон

Все сериалы

все сериалы на PB.wtf

RePack

FAR CRY 5
  

Войны шефов / The Final Table / Сезон: 1 / Выпуски: 1-10 из 10 (Расселл Норман) [2018, Реалити-шоу, кулинария, WEB-DL 1080p] MVO [Кириллица / Netflix] freegat.top

Войны шефов через торрент freegat.top

Раздают: 1 [ 0 KB/s ]
Размер: 29.16 GB | Добавлен: 7 д. назад | Торрент скачан:4 раза
Скачать  

11-01-2020 19:11 Войны шефов Скачать торрент  

Войны шефов / The Final Table Год выпуска: 2018
Страна: США
Жанр: Реалити-шоу, кулинария
Продолжительность: ~ 00:50:00 серия
Перевод: Профессиональный (многоголосый) | Кириллица по заказу Netflix
Субтитры: русские (Netflix), английские, немецкие, польские, финские, шведские, европейски испанские, турецкие, голладские, португальские, французские, итальянские

Режиссер: Расселл Норман

rating

В ролях: Марк Бест, Шейн Осборн, Грант Ачастз, Андони Адурис, Алессандра Амбросио, Юдзи Аябэ, Борха Бенейто, Винет Бхатия, Мигель Бозе, Мариана Камачо, Хулио Сесар Чавес, Элеонора Козелла, Карло Кракко, Кэт Дили

Описание: Настоящие шеф-повара стараются не раскрывать секреты своего успеха. Главные действующие лица этого сериала — потрясающие мастера своего дела, которые на кухне творят настоящее искусство. Главные герои готовят невероятно вкусные блюда для посетителей своего ресторана, однако теперь им предстоит испытать свои навыки на прочность, ведь каждому из действующих лиц этого проекта будет противостоять не менее талантливый и удивительно одаренный повар. Только самый лучший одержит победу. В этой войне разрешено использование любых техник и приготовление любых блюд из разных стран мира! Что же, главные герои ожидают момента истины. Лишь один из них сможет выиграть это сумасшедшее по накалу и динамике кулинарное соревнование!

Качество: WEB-DL 1080p
Формат: MKV

Видео: AVC, 1920x1080 (16:9), 23,976 fps, ~7500 Kbps
Аудио#1: E-AC3, 48,0 kHz, 6 ch, 640 kbps | Netflix
Аудио#2: E-AC3, 48,0 kHz, 6 ch, 640 kbps | English
скриншот  скриншот  скриншот  скриншот  

General
Complete name : The.Final.Table.S01E01.WEB-DL.1080p.-Kyle.mkv
Format : Matroska
Format version : Version 4
File size : 3.23 GiB
Duration : 59 min 52 s
Overall bit rate mode : Variable
Overall bit rate : 7 726 kb/s
Encoded date : UTC 2020-01-11 17:00:42
Writing application : mkvmerge v42.0.0 ('Overtime') 64-bit
Writing library : libebml v1.3.10 + libmatroska v1.5.2

Video
ID : 1
Format : AVC
Format/Info : Advanced Video Codec
Format profile : Main@L4
Format settings : CABAC / 3 Ref Frames
Format settings, CABAC : Yes
Format settings, Reference : 3 frames
Codec ID : V_MPEG4/ISO/AVC
Duration : 59 min 52 s
Bit rate mode : Variable
Bit rate : 6 490 kb/s
Maximum bit rate : 9 735 kb/s
Width : 1 920 pixels
Height : 1 080 pixels
Display aspect ratio : 16:9
Frame rate mode : Constant
Frame rate : 23.976 (24000/1001) FPS
Color space : YUV
Chroma subsampling : 4:2:0
Bit depth : 8 bits
Scan type : Progressive
Bits/(Pixel*Frame) : 0.131
Stream size : 2.69 GiB (83%)
Title : English
Writing library : x264 core 148 r2715 7e75228
Encoding settings : cabac=1 / ref=3 / deblock=1:0:0 / analyse=0x1:0x111 / me=umh / subme=10 / psy=1 / psy_rd=1.00:0.00 / mixed_ref=1 / me_range=24 / chroma_me=1 / trellis=2 / 8x8dct=0 / cqm=0 / deadzone=21,11 / fast_pskip=1 / chroma_qp_offset=-2 / threads=8 / lookahead_threads=1 / sliced_threads=0 / nr=0 / decimate=1 / interlaced=0 / bluray_compat=0 / stitchable=1 / constrained_intra=0 / bframes=2 / b_pyramid=0 / b_adapt=2 / b_bias=0 / direct=3 / weightb=1 / open_gop=0 / weightp=2 / keyint=48 / keyint_min=25 / scenecut=0 / intra_refresh=0 / rc_lookahead=48 / rc=2pass / mbtree=1 / bitrate=6490 / ratetol=1.0 / qcomp=0.50 / qpmin=6 / qpmax=51 / qpstep=4 / cplxblur=20.0 / qblur=0.5 / vbv_maxrate=9735 / vbv_bufsize=12980 / nal_hrd=vbr / filler=0 / ip_ratio=1.40 / aq=1:1.00
Language : English
Default : Yes
Forced : No

Audio #1
ID : 2
Format : E-AC-3
Format/Info : Enhanced AC-3
Commercial name : Dolby Digital Plus
Codec ID : A_EAC3
Duration : 59 min 52 s
Bit rate mode : Constant
Bit rate : 640 kb/s
Channel(s) : 6 channels
Channel layout : L R C LFE Ls Rs
Sampling rate : 48.0 kHz
Frame rate : 31.250 FPS (1536 SPF)
Compression mode : Lossy
Stream size : 274 MiB (8%)
Title : Russian
Language : Russian
Service kind : Complete Main
Default : Yes
Forced : No

Audio #2
ID : 3
Format : E-AC-3
Format/Info : Enhanced AC-3
Commercial name : Dolby Digital Plus
Codec ID : A_EAC3
Duration : 59 min 52 s
Bit rate mode : Constant
Bit rate : 640 kb/s
Channel(s) : 6 channels
Channel layout : L R C LFE Ls Rs
Sampling rate : 48.0 kHz
Frame rate : 31.250 FPS (1536 SPF)
Compression mode : Lossy
Stream size : 274 MiB (8%)
Title : English
Language : English
Service kind : Complete Main
Default : No
Forced : No

Text #1
ID : 4
Format : UTF-8
Codec ID : S_TEXT/UTF8
Codec ID/Info : UTF-8 Plain Text
Duration : 59 min 16 s
Bit rate : 162 b/s
Count of elements : 1141
Stream size : 70.5 KiB (0%)
Title : Russian
Language : Russian
Default : No
Forced : No

Text #2
ID : 5
Format : UTF-8
Codec ID : S_TEXT/UTF8
Codec ID/Info : UTF-8 Plain Text
Duration : 58 min 20 s
Bit rate : 107 b/s
Count of elements : 1145
Stream size : 45.7 KiB (0%)
Title : English
Language : English
Default : No
Forced : No

Text #3
ID : 6
Format : UTF-8
Codec ID : S_TEXT/UTF8
Codec ID/Info : UTF-8 Plain Text
Duration : 59 min 16 s
Bit rate : 94 b/s
Count of elements : 1131
Stream size : 41.2 KiB (0%)
Title : German
Language : German
Default : No
Forced : No

Text #4
ID : 7
Format : UTF-8
Codec ID : S_TEXT/UTF8
Codec ID/Info : UTF-8 Plain Text
Duration : 59 min 16 s
Bit rate : 85 b/s
Count of elements : 1093
Stream size : 37.2 KiB (0%)
Title : Polish
Language : Polish
Default : No
Forced : No

Text #5
ID : 8
Format : UTF-8
Codec ID : S_TEXT/UTF8
Codec ID/Info : UTF-8 Plain Text
Duration : 59 min 16 s
Bit rate : 79 b/s
Count of elements : 949
Stream size : 34.6 KiB (0%)
Title : Finnish
Language : Finnish
Default : No
Forced : No

Text #6
ID : 9
Format : UTF-8
Codec ID : S_TEXT/UTF8
Codec ID/Info : UTF-8 Plain Text
Duration : 59 min 16 s
Bit rate : 93 b/s
Count of elements : 1127
Stream size : 40.6 KiB (0%)
Title : Swedish
Language : Swedish
Default : No
Forced : No

Text #7
ID : 10
Format : UTF-8
Codec ID : S_TEXT/UTF8
Codec ID/Info : UTF-8 Plain Text
Duration : 59 min 16 s
Bit rate : 82 b/s
Count of elements : 1033
Stream size : 35.9 KiB (0%)
Title : European Spanish
Language : Spanish
Default : No
Forced : No

Text #8
ID : 11
Format : UTF-8
Codec ID : S_TEXT/UTF8
Codec ID/Info : UTF-8 Plain Text
Duration : 59 min 16 s
Bit rate : 90 b/s
Count of elements : 1119
Stream size : 39.4 KiB (0%)
Title : Turkish
Language : Turkish
Default : No
Forced : No

Text #9
ID : 12
Format : UTF-8
Codec ID : S_TEXT/UTF8
Codec ID/Info : UTF-8 Plain Text
Duration : 59 min 16 s
Bit rate : 89 b/s
Count of elements : 1104
Stream size : 38.7 KiB (0%)
Title : Dutch
Language : Dutch
Default : No
Forced : No

Text #10
ID : 13
Format : UTF-8
Codec ID : S_TEXT/UTF8
Codec ID/Info : UTF-8 Plain Text
Duration : 59 min 16 s
Bit rate : 95 b/s
Count of elements : 1133
Stream size : 41.3 KiB (0%)
Title : Portuguese
Language : Portuguese
Default : No
Forced : No

Text #11
ID : 14
Format : UTF-8
Codec ID : S_TEXT/UTF8
Codec ID/Info : UTF-8 Plain Text
Duration : 59 min 16 s
Bit rate : 85 b/s
Count of elements : 1131
Stream size : 37.2 KiB (0%)
Title : French
Language : French
Default : No
Forced : No

Text #12
ID : 15
Format : UTF-8
Codec ID : S_TEXT/UTF8
Codec ID/Info : UTF-8 Plain Text
Duration : 59 min 16 s
Bit rate : 89 b/s
Count of elements : 1077
Stream size : 39.0 KiB (0%)
Title : Italian
Language : Italian
Default : No
Forced : No

freegat.top



Скачать Войны шефов через торрент https://i111.fastpic.ru/big/2020/0111/94/8ed23de1d38d20abc08706128e019d94.jpg Скачать фильм Войны шефов через торрент бесплантно в хорошем качестве Описание: Настоящие шеф-повара стараются не раскрывать секреты своего успеха. Главные действующие лица этого сериала — потрясающие мастера ... 10 10 2
Торрент: Зарегистрирован [2020-01-11 19:11] · скачан: 4 раз
Статус: √ проверено
Размер: 29.16 GB
Как cкачать? Как скачать Войны шефов через торрент | qTorrent

28-11-2019 20:33  

Отключить всю рекламу на сайте

    Дорогой пользователь! Огромная просьба, поблагодарите релизера, оцените раздачу и оставьте свои комментарий, если Вы скачали Войны шефов через торрент бесплатно! Внесите свою лепту в развитие PiratBit!
    Комментировать посты могут только пользователи прошедшие не сложную регистрацию
    Показать сообщения:    

    Войны шефов через торрент
    Скачать бесплатно Войны шефов
    Войны шефов скачать торрент
    Войны шефов смотреть онлайн
    Cкачать фильм Войны шефов бесплатно
    Войны шефов скачать торрент в хорошем качестве
    Войны шефов смотреть онлайн бесплатно в хорошем качестве


    Вы не можете начинать темы
    Вы не можете отвечать на сообщения
    Вы не можете редактировать свои сообщения
    Вы не можете удалять свои сообщения
    Вы не можете голосовать в опросах
    Вы не можете прикреплять файлы к сообщениям
    Вы можете скачивать файлы