Ссылка на приватное зеркало всего за 1$. Внимание количество ограничено!!!

OK

1+1

iTunes

мы

OK

1

WEB-DLRip

Джокер

Пифагор

Ведьмак / The Witcher сериал

Лицензия

ПШазам

ОК

Оно 2

iTunes

30
pack

Вам бонус

ВАЖНО

!!Акция!!

Alien_RageХит недели

RePack

Resident Evil 21

ИГРА 18+

pack

RePack

jed

!!Акция!!

Alien_Rage

RePack

fifa19

RePack

Assassins Creed: Odyssey

RePack

NEED FOR SPEED™ PAYBACK

4 сезон

9 сезон

Бесстыжие 9 сезон

Все сериалы

все сериалы на PB.wtf

RePack

FAR CRY 5
  

Нико и Меч Света / Niko and the Sword of Light / Сезон: 1-2 / Серии: 1-23 из 23 (Сун Джин Ан, Майкл Молони) [2015-2019, мультфильм, фэнтези, боевик, приключения, WEB-DL 1080p] DUB [СВ-Дубль] freegat.top

Нико и Меч Света через торрент freegat.top

Раздают: 2 [ 12 KB/s ]
Размер: 27.34 GB | Добавлен: 8 д. назад | Торрент скачан:5 раз
Скачать  

12-01-2020 20:32 Нико и Меч Света Скачать торрент  

Нико и Меч Света | Niko and the Sword of Light
Год выпуска: 2015-2019
Страна: США
Студия: Titmouse, Amazon Studios
Жанр: мультфильм, фэнтези, боевик, приключения
Продолжительность: ~ 00:22:00 серия
Перевод: Дублированный | СВ-Дубль
Субтитры: Русские (Forced, Full), английские (SDH), немецкие, испанские, французкие, итальянские, португальские

Режиссер: Сун Джин Ан, Майкл Молони

rating


В ролях: Андре Робинсон, Кари Уолгрен, Том Кенни, Стив Блум, Ди Брэдли Бейкер, Джим Каммингс, Кевин Майкл Ричардсон

Описание: Сила мрака захватила королевство, обращая невинные создания в ужасных чудовищ. Остался лишь один чемпион, способный противостоять тьме и вернуть магию света: Нико. Вместе с бесстрашной принцессой, вооружённый мечом света, Нико держит путь к Проклятому вулкану, чтобы лицом к лицу сразиться с коварным колдуном Нар-Эстом и освободить мир от гнёта тёмных сил.

Качество: WEB-DL 1080p
Формат: MKV

Видео: AVC, 1920x1080 (16:9), 23.976 fps, ~5339 kbps
Аудио №1: E-AC3, 48 kHz, 6 ch, 640 kbps
Аудио №2: E-AC3, 48 kHz, 6 ch, 640 kbps


Релиз: Wilmots@EniaHD
скриншот  скриншот  скриншот  скриншот  

General
Unique ID : 11680549857702372064425633709990725836 (0x8C9979225CA6DA977D5772B67EDC8CC)
Complete name : Niko.and.the.Sword.of.Light.1080p.AMZN.WEB-DL.DDP5.1.H.264-EniaHD\S01\Niko.and.the.Sword.of.Light.S01E01.1080p.AMZN.WEB-DL.DDP5.1.H.264-EniaHD.mkv
Format : Matroska
Format version : Version 4
File size : 1.06 GiB
Duration : 23 min 41 s
Overall bit rate : 6 434 kb/s
Movie name : Niko and the Sword of Light S01E01 - EniaHD
Encoded date : UTC 2020-01-12 11:24:09
Writing application : mkvmerge v42.0.0 ('Overtime') 64-bit
Writing library : libebml v1.3.10 + libmatroska v1.5.2

Video
ID : 1
Format : AVC
Format/Info : Advanced Video Codec
Format profile : High@L4
Format settings : CABAC / 4 Ref Frames
Format settings, CABAC : Yes
Format settings, Reference fra : 4 frames
Codec ID : V_MPEG4/ISO/AVC
Duration : 23 min 1 s
Bit rate mode : Constant
Bit rate : 5 339 kb/s
Nominal bit rate : 10 000 kb/s
Width : 1 920 pixels
Height : 1 080 pixels
Display aspect ratio : 16:9
Frame rate mode : Constant
Frame rate : 23.976 (24000/1001) FPS
Color space : YUV
Chroma subsampling : 4:2:0
Bit depth : 8 bits
Scan type : Progressive
Bits/(Pixel*Frame) : 0.107
Stream size : 879 MiB (81%)
Default : Yes
Forced : No
Color range : Limited
Color primaries : BT.709
Transfer characteristics : BT.709
Matrix coefficients : BT.709

Audio #1
ID : 2
Format : E-AC-3
Format/Info : Enhanced AC-3
Commercial name : Dolby Digital Plus
Codec ID : A_EAC3
Duration : 23 min 1 s
Bit rate mode : Constant
Bit rate : 640 kb/s
Channel(s) : 6 channels
Channel layout : L R C LFE Ls Rs
Sampling rate : 48.0 kHz
Frame rate : 31.250 FPS (1536 SPF)
Compression mode : Lossy
Stream size : 105 MiB (10%)
Language : Russian
Service kind : Complete Main
Default : Yes
Forced : No

Audio #2
ID : 3
Format : E-AC-3
Format/Info : Enhanced AC-3
Commercial name : Dolby Digital Plus
Codec ID : A_EAC3
Duration : 23 min 1 s
Bit rate mode : Constant
Bit rate : 640 kb/s
Channel(s) : 6 channels
Channel layout : L R C LFE Ls Rs
Sampling rate : 48.0 kHz
Frame rate : 31.250 FPS (1536 SPF)
Compression mode : Lossy
Stream size : 105 MiB (10%)
Language : English
Service kind : Complete Main
Default : No
Forced : No

Text #1
ID : 4
Format : UTF-8
Codec ID : S_TEXT/UTF8
Codec ID/Info : UTF-8 Plain Text
Duration : 8 s 300 ms
Bit rate : 90 b/s
Count of elements : 2
Stream size : 94.0 Bytes (0%)
Title : Forced
Language : Russian
Default : Yes
Forced : No

Text #2
ID : 5
Format : UTF-8
Codec ID : S_TEXT/UTF8
Codec ID/Info : UTF-8 Plain Text
Duration : 22 min 2 s
Bit rate : 88 b/s
Count of elements : 297
Stream size : 14.3 KiB (0%)
Language : Russian
Default : No
Forced : No

Text #3
ID : 6
Format : UTF-8
Codec ID : S_TEXT/UTF8
Codec ID/Info : UTF-8 Plain Text
Duration : 23 min 34 s
Bit rate : 58 b/s
Count of elements : 408
Stream size : 10.1 KiB (0%)
Title : SDH
Language : English
Default : No
Forced : No

Text #4
ID : 7
Format : UTF-8
Codec ID : S_TEXT/UTF8
Codec ID/Info : UTF-8 Plain Text
Duration : 22 min 2 s
Bit rate : 70 b/s
Count of elements : 260
Stream size : 11.3 KiB (0%)
Language : German
Default : No
Forced : No

Text #5
ID : 8
Format : UTF-8
Codec ID : S_TEXT/UTF8
Codec ID/Info : UTF-8 Plain Text
Duration : 22 min 2 s
Bit rate : 58 b/s
Count of elements : 298
Stream size : 9.44 KiB (0%)
Title : European
Language : Spanish
Default : No
Forced : No

Text #6
ID : 9
Format : UTF-8
Codec ID : S_TEXT/UTF8
Codec ID/Info : UTF-8 Plain Text
Duration : 22 min 2 s
Bit rate : 65 b/s
Count of elements : 298
Stream size : 10.5 KiB (0%)
Language : French
Default : No
Forced : No

Text #7
ID : 10
Format : UTF-8
Codec ID : S_TEXT/UTF8
Codec ID/Info : UTF-8 Plain Text
Duration : 22 min 2 s
Bit rate : 57 b/s
Count of elements : 299
Stream size : 9.31 KiB (0%)
Language : Italian
Default : No
Forced : No

Text #8
ID : 11
Format : UTF-8
Codec ID : S_TEXT/UTF8
Codec ID/Info : UTF-8 Plain Text
Duration : 22 min 2 s
Bit rate : 56 b/s
Count of elements : 296
Stream size : 9.11 KiB (0%)
Title : Brazilian
Language : Portuguese
Default : No
Forced : No

Menu
00:00:00.000 : :Amazon Oirignal
00:00:05.000 : :Title Sequence
00:00:51.000 : :Episode Title
00:00:59.000 : :A champion is born
00:04:08.000 : :But you're just a kid
00:06:01.000 : :Niko and Mandok venture out of the cave
00:09:19.000 : :The elders squabble over how to proceed
00:14:38.000 : :The forest isn't as safe as it once was
00:19:18.000 : :Lyra tells Niko the story of his lineage
00:21:05.000 : :Meanwhile in the Volcano of Darkness
00:22:20.000 : :End Credits

Сезон 1:
01. От Храма чемпионов к Роковому мосту — From the Temple of Champions to the Bridge of Doom
02. От Лабиринта Страданий к Болоту Скорби — From the Sky Maze of Anguish to the Swamp of Sorrow
03. От Болота Скорби с Холмам Унижения — From the Swamp of Sorrow to the Hills of Humiliation
04. От Призрачного леса к Горестным горам — From the Phantom Woods to the Mountains of Misery
05. Из Моря страданий на Далекий брег — From the Sea of Suffering to the Faraway Shore
06. От Каньона бумбарюхов до Бездны мрака — From the Tumbledowns to the Gap of Gloom
07. От Бескрайнего Простора до Бедовых Дебрей — From the Endless Expanse to the Thorns of Tribulation
08. От Скал Катастрофы к Водам Планиды — From the Cliffs of Catastrophe to the Pools of Destiny
09. От Источников ужаса к Облакам хаоса — From the Shattering Springs to the Clouds of Chaos
10. От Погибельных гор к Могильным курганам — From the Peaks of Peril to the Mounds of Mania
11. От Тоннелей страха к Логову мрака — From the Tunnels of Terror to the Den of Doom
12. От Проклятого вулкана к обманутым надеждам — From the Cursed Volcano to the End of Hope
13. Из глубин отчаяния — From the Depths of Despair...

Сезон 2: Амулет силы:
01. День в Каронделете — A Day in Carondolet
02. Ночь в Каронделете — A Night in Carondolet
03. Ядовитый лес — The Forest of Fangs
04. Китоград — Sky Whale City
05. Башня раздора — The Thorn of Contention
06. Гусеничный поезд — The Caterpillar Train
07. Безбрежное море — The Vast Sea
08. Автоматрон — The Automatron
09. Забытая крепость — The Forgotten Fortress
10. Баланс силы — The Balance of Power

freegat.top



Скачать Нико и Меч Света через торрент https://i6.imageban.ru/out/2020/01/12/2f19ae52582b508b5eeccbec40a774f7.jpg Скачать фильм Нико и Меч Света через торрент бесплантно в хорошем качестве Описание: Сила мрака захватила королевство, обращая невинные создания в ужасных чудовищ. Остался лишь один чемпион, способный противостоять ... 10 10 3
Торрент: Зарегистрирован [2020-01-12 20:32] · скачан: 5 раз
Статус: √ проверено
Размер: 27.34 GB
Как cкачать? Как скачать Нико и Меч Света через торрент | qTorrent

28-11-2019 20:33  

Отключить всю рекламу на сайте

    Дорогой пользователь! Огромная просьба, поблагодарите релизера, оцените раздачу и оставьте свои комментарий, если Вы скачали Нико и Меч Света через торрент бесплатно! Внесите свою лепту в развитие PiratBit!
    Комментировать посты могут только пользователи прошедшие не сложную регистрацию
    Показать сообщения:    

    Нико и Меч Света через торрент
    Скачать бесплатно Нико и Меч Света
    Нико и Меч Света скачать торрент
    Нико и Меч Света смотреть онлайн
    Cкачать фильм Нико и Меч Света бесплатно
    Нико и Меч Света скачать торрент в хорошем качестве
    Нико и Меч Света смотреть онлайн бесплатно в хорошем качестве


    Вы не можете начинать темы
    Вы не можете отвечать на сообщения
    Вы не можете редактировать свои сообщения
    Вы не можете удалять свои сообщения
    Вы не можете голосовать в опросах
    Вы не можете прикреплять файлы к сообщениям
    Вы можете скачивать файлы