Ссылка на приватное зеркало всего за 1$. Внимание количество ограничено!!!

OK

1+1

iTunes

мы

OK

1

WEB-DLRip

Джокер

Пифагор

Ведьмак / The Witcher сериал

Лицензия

ПШазам

ОК

Оно 2

iTunes

30
pack

Вам бонус

ВАЖНО

!!Акция!!

Alien_RageХит недели

RePack

Resident Evil 21

ИГРА 18+

pack

RePack

jed

!!Акция!!

Alien_Rage

RePack

fifa19

RePack

Assassins Creed: Odyssey

RePack

NEED FOR SPEED™ PAYBACK

4 сезон

9 сезон

Бесстыжие 9 сезон

Все сериалы

все сериалы на PB.wtf

RePack

FAR CRY 5
  

Джеймс Мэй: Наш человек в Японии / James May: Our Man in Japan / Сезон: 1 / Серии: 1-2 из 6 [2020, Шоу, WEBRip 1080p] [DVO] (Jetvis Studio) freegat.top

Джеймс Мэй: Наш человек в Японии через торрент freegat.top

Раздают: 5 [ 0 KB/s ]
Размер: 6.5 GB | Добавлен: 8 д. назад | Торрент скачан:12 раз
Скачать  

13-01-2020 16:23 Джеймс Мэй: Наш человек в Японии Скачать торрент  

Джеймс Мэй: Наш человек в Японии / James May: Our Man in Japan Дата выпуска: 2020
Страна: США
Ведущие: Джеймс Мэй
Жанр: Шоу
Продолжительность: 00:48:35
Перевод: Любительский (двухголосый закадровый) - Jetvis Studio

Релиз:
Озвучка: Jetvis Studio
Роли озвучивали: Михаил Вельмискин, Иван Назаров.

Описание: Джеймс Мэй отправляется в удивительное путешествие по Японии – от студеного севера до упоительно теплого юга. Он увидит достопримечательности, познакомится с местными жителями и будет есть лапшу, пытаясь по-настоящему понять Страну восходящего солнца.

rating

Качество видео: WEBRip
Формат видео: MKV
Видео: H.264, 1920x1080 (16:9), 25.000 fps, ~9190 kbps, ~0.154 bit/pixel
Аудио Rus: 48 kHz, AC3, 2 ch, ~192.00 kbps avg
Аудио Eng: 48 kHz, AC3, 2 ch, ~192.00 kbps avg
General
Unique ID : 190421638877145526199599338493326214956 (0x8F41DFA6B154AA55934F6FC22F69472C)
Complete name : E:\James.May.Our.Man.in.Japan.S01.Jetvis.Studio\James.May.Our.Man.in.Japan.S01E01.Jetvis.Studio.mkv
Format : Matroska
Format version : Version 4 / Version 2
File size : 3.34 GiB
Duration : 48mn 58s
Overall bit rate mode : Constant
Overall bit rate : 9 768 Kbps
Encoded date : UTC 2020-01-04 22:39:41
Writing application : mkvmerge v9.8.0 ('Kuglblids') 64bit
Writing library : libebml v1.3.4 + libmatroska v1.4.5

Video
ID : 1
Format : AVC
Format/Info : Advanced Video Codec
Format profile : High@L4
Format settings, CABAC : Yes
Format settings, ReFrames : 4 frames
Codec ID : V_MPEG4/ISO/AVC
Duration : 48mn 58s
Bit rate mode : Constant
Bit rate : 9 190 Kbps
Nominal bit rate : 10 000 Kbps
Width : 1 920 pixels
Height : 1 080 pixels
Display aspect ratio : 16:9
Frame rate mode : Constant
Frame rate : 25.000 fps
Color space : YUV
Chroma subsampling : 4:2:0
Bit depth : 8 bits
Scan type : Progressive
Bits/(Pixel*Frame) : 0.177
Stream size : 3.14 GiB (94%)
Default : Yes
Forced : No
Color range : Limited
Color primaries : BT.709
Transfer characteristics : BT.709
Matrix coefficients : BT.709

Audio #1
ID : 2
Format : AC-3
Format/Info : Audio Coding 3
Mode extension : CM (complete main)
Format settings, Endianness : Big
Codec ID : A_AC3
Duration : 48mn 58s
Bit rate mode : Constant
Bit rate : 192 Kbps
Channel(s) : 2 channels
Channel positions : Front: L R
Sampling rate : 48.0 KHz
Compression mode : Lossy
Stream size : 67.2 MiB (2%)
Default : Yes
Forced : Yes

Audio #2
ID : 3
Format : AC-3
Format/Info : Audio Coding 3
Mode extension : CM (complete main)
Format settings, Endianness : Big
Codec ID : A_AC3
Duration : 48mn 58s
Bit rate mode : Constant
Bit rate : 192 Kbps
Channel(s) : 2 channels
Channel positions : Front: L R
Sampling rate : 48.0 KHz
Compression mode : Lossy
Stream size : 67.2 MiB (2%)
Default : No
Forced : No
скриншот   скриншот   скриншот  
Внимание! Раздача ведётся путём добавления новых серий; при каждом добавлении создаётся новый торрент.
Чтобы начать докачку новой серии, пользователям необходимо сделать следующее:
1. Остановить скачивание.
2. Удалить старый торрент у себя из клиента (старые серии удалять не надо).
3. Скачать новый торрент и запустить его у себя в клиенте вместо старого, при этом указать клиенту путь в старую папку куда и должно происходить скачивание новых серий.
Ваш клиент при этом должен произвести хеширование (проверку) старой папки (если не производит сам - помогите ему сделать это), и будет докачивать только те серии которых у вас ещё нет. Старые серии при этом не удаляются, а продолжают раздаваться!
Eсли вы уже удалили старые серии, то предотвратить повторную закачку старых серий можно, отжав галочку в соответствующих местах при запуске нового торрента.
freegat.top



Скачать Джеймс Мэй: Наш человек в Японии через торрент https://i111.fastpic.ru/big/2020/0105/70/8a1d878176e4ee335ec0358e68bde770.jpg Скачать фильм Джеймс Мэй: Наш человек в Японии через торрент бесплантно в хорошем качестве Описание: Джеймс Мэй отправляется в удивительное путешествие по Японии – от студеного севера до упоительно теплого юга. Он увидит ... 10 10 3
Торрент: Зарегистрирован [2020-01-13 16:23] · скачан: 12 раз
Статус: √ проверено
Размер: 6.5 GB
Как cкачать? Как скачать Джеймс Мэй: Наш человек в Японии через торрент | qTorrent

28-11-2019 20:33  

Отключить всю рекламу на сайте

    Дорогой пользователь! Огромная просьба, поблагодарите релизера, оцените раздачу и оставьте свои комментарий, если Вы скачали Джеймс Мэй: Наш человек в Японии через торрент бесплатно! Внесите свою лепту в развитие PiratBit!
    Комментировать посты могут только пользователи прошедшие не сложную регистрацию
    Показать сообщения:    

    Джеймс Мэй: Наш человек в Японии через торрент
    Скачать бесплатно Джеймс Мэй: Наш человек в Японии
    Джеймс Мэй: Наш человек в Японии скачать торрент
    Джеймс Мэй: Наш человек в Японии смотреть онлайн
    Cкачать фильм Джеймс Мэй: Наш человек в Японии бесплатно
    Джеймс Мэй: Наш человек в Японии скачать торрент в хорошем качестве
    Джеймс Мэй: Наш человек в Японии смотреть онлайн бесплатно в хорошем качестве


    Вы не можете начинать темы
    Вы не можете отвечать на сообщения
    Вы не можете редактировать свои сообщения
    Вы не можете удалять свои сообщения
    Вы не можете голосовать в опросах
    Вы не можете прикреплять файлы к сообщениям
    Вы можете скачивать файлы