Ссылка на приватное зеркало всего за 1$. Внимание количество ограничено!!!

OK

1+1

iTunes

мы

OK

1

WEB-DLRip

Джокер

Пифагор

Ведьмак / The Witcher сериал

Лицензия

ПШазам

ОК

Оно 2

iTunes

30
pack

Вам бонус

ВАЖНО

!!Акция!!

Alien_RageХит недели

RePack

Resident Evil 21

ИГРА 18+

pack

RePack

jed

!!Акция!!

Alien_Rage

RePack

fifa19

RePack

Assassins Creed: Odyssey

RePack

NEED FOR SPEED™ PAYBACK

4 сезон

9 сезон

Бесстыжие 9 сезон

Все сериалы

все сериалы на PB.wtf

RePack

FAR CRY 5
  

Американская домохозяйка / American Housewife / Сезон: 1 / Серии: 1-23 из 23 (Джон Путч, Мелисса Козар, Крис Кох) [2016, Комедия, WEB-DL 1080p] MVO [TVShows] freegat.top

Американская домохозяйка через торрент freegat.top

Раздают: 1 [ 0 KB/s ]
Размер: 20.17 GB | Добавлен: 5 д. назад | Торрент скачан:2 раза
Скачать  

14-01-2020 09:47 Американская домохозяйка Скачать торрент  

Американская домохозяйка | American Housewife
Год выпуска: 2016
Страна: США
Жанр: Комедия
Продолжительность: ~ 00:22:00 серия
Перевод: Профессиональный (многоголосый) | TVShows
Субтитры: Английские

Режиссер: Джон Путч, Мелисса Козар, Крис Кох

rating


В ролях: Али Вонг, Джулия Баттерз, Дэниэл ДиМаджио, Дидрих Бадер, Кэти Миксон, Карли Крэйг, Пейтон Мейер, Мэг Доннелли, Карли Хьюз

Описание: Глава американского домохозяйства пытается сделать все, чтобы жизнь наладилась. Главная героиня сериала заботится о троих детях, проживая в небольшом доме в Уэстпорте. Женщина всегда уверена в своих силах и бросает вызов самым сложным испытаниям. Нередко главная героиня делится опытом с другими «мамочками». Общение помогает героине найти новые интересные решения домашних проблем. К тому же за женщиной закреплен статус — вторая самая пышная домохозяйка города. Обижаться или радоваться на слово «вторая»? Женщина сама решит. Вряд ли она оставит это просто так, но при этом просто продолжит делать свое дело!

Качество: WEB-DL 1080p
Формат: MKV

Видео: MPEG-4 AVC, 1920x1080, 23.976 fps, ~5184 kbps
Аудио#1: Русский, AC3, 48 kHz, 6 ch, 384 kbps
Аудио#2: Английский, AC3, 48 kHz, 6 ch, 384 kbps
скриншот  скриншот  скриншот  скриншот  

General
Unique ID : 257610068215816433832451127989247619338 (0xC1CDE4F9B55A4869E8B125C6B4F7310A)
Complete name : American.Housewife.S01E01.1080p.TVShows.mkv
Format : Matroska
Format version : Version 4
File size : 957 MiB
Duration : 22 min 28 s
Overall bit rate : 5 955 kb/s
Encoded date : UTC 2020-01-14 07:26:18
Writing application : mkvmerge v33.1.0 ('Primrose') 64-bit
Writing library : libebml v1.3.7 + libmatroska v1.5.0

Video
ID : 1
Format : AVC
Format/Info : Advanced Video Codec
Format profile : High@L4
Format settings : CABAC / 4 Ref Frames
Format settings, CABAC : Yes
Format settings, Reference frames : 4 frames
Codec ID : V_MPEG4/ISO/AVC
Duration : 22 min 28 s
Bit rate : 5 184 kb/s
Width : 1 920 pixels
Height : 1 080 pixels
Display aspect ratio : 16:9
Frame rate mode : Constant
Frame rate : 23.976 (23976/1000) FPS
Color space : YUV
Chroma subsampling : 4:2:0
Bit depth : 8 bits
Scan type : Progressive
Bits/(Pixel*Frame) : 0.104
Stream size : 833 MiB (87%)
Language : English
Default : Yes
Forced : No
Color range : Limited
Color primaries : BT.709
Transfer characteristics : BT.709
Matrix coefficients : BT.709

Audio #1
ID : 2
Format : AC-3
Format/Info : Audio Coding 3
Commercial name : Dolby Digital
Codec ID : A_AC3
Duration : 22 min 28 s
Bit rate mode : Constant
Bit rate : 384 kb/s
Channel(s) : 6 channels
Channel layout : L R C LFE Ls Rs
Sampling rate : 48.0 kHz
Frame rate : 31.250 FPS (1536 SPF)
Compression mode : Lossy
Stream size : 61.7 MiB (6%)
Title : TVShows
Language : Russian
Service kind : Complete Main
Default : Yes
Forced : Yes

Audio #2
ID : 3
Format : AC-3
Format/Info : Audio Coding 3
Commercial name : Dolby Digital
Codec ID : A_AC3
Duration : 22 min 28 s
Bit rate mode : Constant
Bit rate : 384 kb/s
Channel(s) : 6 channels
Channel layout : L R C LFE Ls Rs
Sampling rate : 48.0 kHz
Frame rate : 31.250 FPS (1536 SPF)
Compression mode : Lossy
Stream size : 61.7 MiB (6%)
Title : Original
Language : English
Service kind : Complete Main
Default : No
Forced : No

Text
ID : 4
Format : UTF-8
Codec ID : S_TEXT/UTF8
Codec ID/Info : UTF-8 Plain Text
Duration : 22 min 26 s
Bit rate : 117 b/s
Count of elements : 641
Stream size : 19.3 KiB (0%)
Title : English
Language : English
Default : No
Forced : No

freegat.top



Скачать Американская домохозяйка через торрент https://c.radikal.ru/c34/1812/8e/d9c976322fe7.jpg Скачать фильм Американская домохозяйка через торрент бесплантно в хорошем качестве Описание: Глава американского домохозяйства пытается сделать все, чтобы жизнь наладилась. Главная героиня сериала заботится о троих детях, ... 9.3 10 4
Торрент: Зарегистрирован [2020-01-14 09:47] · скачан: 2 раз
Статус: √ проверено
Размер: 20.17 GB
Как cкачать? Как скачать Американская домохозяйка через торрент | qTorrent

28-11-2019 20:33  

Отключить всю рекламу на сайте

    Дорогой пользователь! Огромная просьба, поблагодарите релизера, оцените раздачу и оставьте свои комментарий, если Вы скачали Американская домохозяйка через торрент бесплатно! Внесите свою лепту в развитие PiratBit!
    Комментировать посты могут только пользователи прошедшие не сложную регистрацию
    Показать сообщения:    

    Американская домохозяйка через торрент
    Скачать бесплатно Американская домохозяйка
    Американская домохозяйка скачать торрент
    Американская домохозяйка смотреть онлайн
    Cкачать фильм Американская домохозяйка бесплатно
    Американская домохозяйка скачать торрент в хорошем качестве
    Американская домохозяйка смотреть онлайн бесплатно в хорошем качестве


    Вы не можете начинать темы
    Вы не можете отвечать на сообщения
    Вы не можете редактировать свои сообщения
    Вы не можете удалять свои сообщения
    Вы не можете голосовать в опросах
    Вы не можете прикреплять файлы к сообщениям
    Вы можете скачивать файлы