Ссылка на приватное зеркало всего за 1$. Внимание количество ограничено!!!

OK

1+1

iTunes

мы

OK

1

WEB-DLRip

Джокер

Пифагор

Ведьмак / The Witcher сериал

Лицензия

ПШазам

ОК

Оно 2

iTunes

30
pack

Вам бонус

ВАЖНО

!!Акция!!

Alien_RageХит недели

RePack

Resident Evil 21

ИГРА 18+

pack

RePack

jed

!!Акция!!

Alien_Rage

RePack

fifa19

RePack

Assassins Creed: Odyssey

RePack

NEED FOR SPEED™ PAYBACK

4 сезон

9 сезон

Бесстыжие 9 сезон

Все сериалы

все сериалы на PB.wtf

RePack

FAR CRY 5
  

Чужак / The Outsider / Сезон: 1 / Серии: 1-3 из 10 (Эндрю Бернштейн, Джейсон Бейтман, Шарлотта Брандстром) [2020, Триллер, детектив, криминал, WEB-DL 720p] MVO [Кравец-Рекордз / Amedia] freegat.top

Чужак через торрент freegat.top

Раздают: 6 [ 3 MB/s ] Качают: 11 [ 0 KB/s ]
Размер: 3.8 GB | Добавлен: 2 ч. 7 мин. назад | Торрент скачан:5 раз
Скачать  

14-01-2020 12:51 Чужак Скачать торрент  

Чужак | The Outsider
Год выпуска: 2020
Страна: США
Жанр: Триллер, детектив, криминал
Продолжительность: ~ 00:55:00 серия
Перевод: Профессиональный (многоголосый) | студия "Кравец-Рекордз" по заказу Amedia
Субтитры: Russian (Full |Amedia|), English (SDH)

Режиссер: Эндрю Бернштейн, Джейсон Бейтман, Шарлотта Брандстром

rating


В ролях: Юл Васкес, Джейсон Бейтман, Джереми Бобб, Синтиа Эриво, Джон Геттье, Марк Менчака, Бен Мендельсон, Джулианна Николсон, Дерек Сесил, Билл Кэмп

Описание: Мужчину обвиняют в убийстве мальчика. Отпечатки пальцев указывают на него, но если верить записям с камер, то он в момент убийства находился в 90 км от места преступления. Детектив, расследующий дело, начинает подозревать, что в случившемся замешано нечто сверхъестественное.

Качество: WEB-DL 720p
Формат: MKV

Видео: 1280x720 at 23.976 fps, MPEG-4 AVC, ~2500 kbps avg
Аудио#1: Russian: 48 kHz, AC3, 2/0 (L,R) ch, ~192 kbps avg |Многоголосый закадровый, студия "Кравец-Рекордз" по заказу Amedia|
Аудио#2: English: 48 kHz, E-AC3, 3/2 (L,C,R,l,r) + LFE ch, ~640 kbps avg
скриншот  скриншот  скриншот  скриншот  

Общее
Уникальный идентификатор : 249282519768161966736113173834513698703 (0xBB8A1123338E72308DCEFDCE0C4ECF8F)
Полное имя : D:\The.Outsider.S01.Kravec.720p.RUTOR\The.Outsider.S01.E01.720p.mkv
Формат : Matroska
Версия формата : Version 4 / Version 2
Размер файла : 1,34 Гбайт
Продолжительность : 1 ч. 0 м.
Общий поток : 3147 Кбит/сек
Дата кодирования : UTC 2020-01-13 09:51:00
Программа кодирования : mkvmerge v6.5.0 ('Isn't she lovely') built on Oct 20 2013 12:50:05
Библиотека кодирования : libebml v1.3.0 + libmatroska v1.4.1

Видео
Идентификатор : 1
Формат : AVC
Формат/Информация : Advanced Video Codec
Профиль формата : High@L3.1
Параметр CABAC формата : Да
Параметр RefFrames формата : 4 кадра
Идентификатор кодека : V_MPEG4/ISO/AVC
Продолжительность : 1 ч. 0 м.
Вид битрейта : Постоянный
Битрейт : 2352 Кбит/сек
Номинальный битрейт : 6000 Кбит/сек
Ширина : 1280 пикселей
Высота : 720 пикселей
Соотношение сторон : 16:9
Режим частоты кадров : Постоянный
Частота кадров : 23,976 (24000/1001) кадра/сек
Цветовое пространство : YUV
Субдискретизация насыщенности : 4:2:0
Битовая глубина : 8 бит
Тип развёртки : Прогрессивная
Бит/(Пиксели*Кадры) : 0.102
Размер потока : 979 Мбайт (72%)
Default : Да
Forced : Нет
Цветовой диапазон : Limited
Основные цвета : BT.709
Характеристики трансфера : BT.709
Коэффициенты матрицы : BT.709

Аудио #1
Идентификатор : 2
Формат : AC-3
Формат/Информация : Audio Coding 3
Расширение режима : CM (complete main)
Параметр Endianness формата : Big
Идентификатор кодека : A_AC3
Продолжительность : 1 ч. 0 м.
Вид битрейта : Постоянный
Битрейт : 192 Кбит/сек
Каналы : 2 канала
Расположение каналов : Front: L R
Частота : 48,0 КГц
Частота кадров : 31,250 кадров/сек (1536 spf)
Метод сжатия : С потерями
Размер потока : 83,5 Мбайт (6%)
Язык : Russian
Default : Да
Forced : Нет

Аудио #2
Идентификатор : 3
Формат : E-AC-3
Формат/Информация : Audio Coding 3
Параметр Endianness формата : Big
Идентификатор кодека : A_EAC3
Продолжительность : 1 ч. 0 м.
Вид битрейта : Постоянный
Битрейт : 640 Кбит/сек
Каналы : 6 каналов
Расположение каналов : Front: L C R, Side: L R, LFE
Частота : 48,0 КГц
Частота кадров : 187,500 кадров/сек (256 spf)
Метод сжатия : С потерями
Задержка видео : 8 мс.
Размер потока : 278 Мбайт (20%)
Язык : English
Default : Нет
Forced : Нет

Текст #1
Идентификатор : 4
Формат : UTF-8
Идентификатор кодека : S_TEXT/UTF8
Идентификатор кодека/Информация : UTF-8 Plain Text
Язык : Russian
Default : Нет
Forced : Нет

Текст #2
Идентификатор : 5
Формат : UTF-8
Идентификатор кодека : S_TEXT/UTF8
Идентификатор кодека/Информация : UTF-8 Plain Text
Заголовок : SDH
Язык : English
Default : Нет
Forced : Нет

Внимание! Раздача ведётся путём добавления новых серий; при каждом добавлении создаётся новый торрент. Чтобы начать докачку новой серии, пользователям необходимо сделать следующее:
(1) остановить скачивание,
(2) удалить старый торрент у себя из клиента (старые серии удалять не надо),
(3) скачать новый торрент и запустить его у себя в клиенте вместо старого, при этом указать клиенту путь в старую папку куда и должно происходить скачивание новых серий.

Ваш клиент при этом должен произвести хеширование (проверку) старой папки (если не производит сам - помогите ему сделать это), и будет докачивать только те серии которых у вас ещё нет. Старые серии при этом не удаляются, а продолжают раздаваться!

Eсли вы уже удалили старые серии, то предотвратить повторную закачку старых серий можно, отжав галочку в соответсвующих местах при запуске нового торрента. По возможности, желательно не удалять старые серии как можно дольше чтобы релизёр не столько продолжал раздавать старые серии, а смог сконцентрироваться на новых.
freegat.top



Скачать Чужак через торрент https://a.radikal.ru/a07/2001/b9/245f49fe67d9.jpg Скачать фильм Чужак через торрент бесплантно в хорошем качестве Описание: Мужчину обвиняют в убийстве мальчика. Отпечатки пальцев указывают на него, но если верить записям с камер, то он в момент ... 9.3 10 3
Торрент: Зарегистрирован [2020-01-20 12:38] · скачан: 5 раз
Статус: √ проверено
Размер: 3.8 GB
Как cкачать? Как скачать Чужак через торрент | qTorrent

% Раздел Тема Автор DL S | L
T Зарубежные сериалы [ 9.39 GB ] Чужак / The Outsider / Сезон: 1 / Серии: 1-3 из 10 [2020 WEBRip 1080p] MVO [Octopus] bober100 Скачать
5 | 15
Зарубежные сериалы [ 8.89 GB ] Чужак / The Outsider / Сезон: 1 / Серии: 1-3 из 10 [2020 WEB-DL 1080p] MVO [Кравец-Рекордз / Amedia] bober100 Скачать
9 | 13
T Зарубежные сериалы [ 6.08 GB ] Чужак / The Outsider / Сезон: 1 / Серии: 1-3 из 10 [2020 WEBRip 720p] MVO [Octopus] bober100 Скачать
1 | 7
T Зарубежные сериалы [ 2.27 GB ] Чужак / The Outsider / Сезон: 1 / Серии: 1-3 из 10 [2020 WEBRip] MVO [Octopus] bober100 Скачать
14 | 9

28-11-2019 20:33  

Отключить всю рекламу на сайте

    Дорогой пользователь! Огромная просьба, поблагодарите релизера, оцените раздачу и оставьте свои комментарий, если Вы скачали Чужак через торрент бесплатно! Внесите свою лепту в развитие PiratBit!
    Комментировать посты могут только пользователи прошедшие не сложную регистрацию
    Показать сообщения:    

    Чужак через торрент
    Скачать бесплатно Чужак
    Чужак скачать торрент
    Чужак смотреть онлайн
    Cкачать фильм Чужак бесплатно
    Чужак скачать торрент в хорошем качестве
    Чужак смотреть онлайн бесплатно в хорошем качестве


    Вы не можете начинать темы
    Вы не можете отвечать на сообщения
    Вы не можете редактировать свои сообщения
    Вы не можете удалять свои сообщения
    Вы не можете голосовать в опросах
    Вы не можете прикреплять файлы к сообщениям
    Вы можете скачивать файлы